<?xml version="1.0" encoding="UTF-8" standalone="no"?>
<!DOCTYPE svg PUBLIC "-//W3C//DTD SVG 1.1//EN" "http://www.w3.org/Graphics/SVG/1.1/DTD/svg11.dtd">
<svg xmlns="http://www.w3.org/2000/svg">
<metadata>
<json>
<![CDATA[
{
	"fontFamily": "modules",
	"majorVersion": 2,
	"minorVersion": 4,
	"version": "Version 2.4",
	"fontId": "modules",
	"psName": "modules",
	"subFamily": "Regular",
	"fullName": "modules",
	"description": "Font generated by IcoMoon."
}
]]>
</json>
</metadata>
<defs>
<font id="modules" horiz-adv-x="1024">
<font-face units-per-em="1024" ascent="960" descent="-64"/>
<missing-glyph horiz-adv-x="1024"/>
<glyph unicode=" " horiz-adv-x="512" d=""/>
<glyph unicode="!" glyph-name="arrow_up" data-tags="arrow_up" d="M544 64c17.664 0 32 14.336 32 32v626.752l137.344-137.344c12.48-12.48 32.768-12.48 45.248 0s12.48 32.768 0 45.248l-192 192c-2.944 2.944-6.464 5.248-10.368 6.848-7.808 3.264-16.64 3.264-24.448 0-3.84-1.536-7.232-3.84-10.176-6.72-0.064-0.064-0.128-0.064-0.256-0.128l-192-192c-12.48-12.48-12.48-32.768 0-45.248s32.768-12.48 45.248 0l137.408 137.344v-626.752c0-17.664 14.336-32 32-32z"/>
<glyph unicode="&quot;" glyph-name="arrow_down" data-tags="arrow_down" d="M544 832c-17.664 0-32-14.336-32-32v-626.752l-137.344 137.344c-12.48 12.48-32.768 12.48-45.248 0s-12.48-32.768 0-45.248l192-192c0.064-0.064 0.192-0.064 0.256-0.192 2.88-2.816 6.336-5.184 10.112-6.72 7.808-3.264 16.64-3.264 24.448 0 3.904 1.6 7.424 3.968 10.368 6.912l192 192c12.48 12.48 12.48 32.768 0 45.248s-32.768 12.48-45.248 0l-137.344-137.344v626.752c0 17.664-14.336 32-32 32z"/>
<glyph unicode="#" glyph-name="arrow_left" data-tags="arrow_left" d="M128 479.872c0-4.096 0.896-8.192 2.496-12.096 1.536-3.776 3.84-7.168 6.656-10.048 0.064-0.128 0.128-0.256 0.192-0.384l192-192c12.48-12.48 32.768-12.48 45.248 0s12.48 32.768 0 45.248l-137.344 137.408h626.752c17.664 0 32 14.336 32 32s-14.336 32-32 32h-626.752l137.344 137.344c12.48 12.48 12.48 32.768 0 45.248s-32.768 12.48-45.248 0l-192-192c-0.064-0.064-0.128-0.256-0.192-0.32-2.816-2.88-5.12-6.272-6.656-10.048-1.664-3.904-2.496-8.064-2.496-12.224v0c0-0.064 0-0.064 0-0.128z"/>
<glyph unicode="$" glyph-name="arrow_right" data-tags="arrow_right" d="M128 480c0-17.664 14.336-32 32-32h626.752l-137.344-137.344c-12.48-12.48-12.48-32.768 0-45.248s32.768-12.48 45.248 0l192 192c2.944 2.944 5.312 6.464 6.912 10.368 1.536 3.904 2.432 8 2.432 12.096 0 0.064 0 0.064 0 0.128v0c0 4.16-0.832 8.32-2.496 12.224-1.6 3.904-3.968 7.424-6.912 10.368l-192 192c-12.48 12.48-32.768 12.48-45.248 0s-12.48-32.768 0-45.248l137.408-137.344h-626.752c-17.664 0-32-14.336-32-32z"/>
<glyph unicode="%" glyph-name="arrow_left-up" data-tags="arrow_left-up" d="M128 480c0-17.664 14.336-32 32-32s32 14.336 32 32v242.752l649.344-649.344c12.48-12.48 32.768-12.48 45.248 0s12.48 32.768 0 45.248l-649.344 649.344h242.752c17.664 0 32 14.336 32 32s-14.336 32-32 32h-320c-4.16 0-8.32-0.832-12.224-2.496-3.84-1.536-7.232-3.84-10.176-6.72-0.064-0.064-0.128-0.064-0.256-0.128-0.064-0.128-0.128-0.32-0.192-0.384-2.816-2.88-5.12-6.272-6.656-10.048-1.664-3.904-2.496-8.064-2.496-12.224v0-320z"/>
<glyph unicode="&amp;" glyph-name="arrow_right-up" data-tags="arrow_right-up" d="M137.344 73.344c12.48-12.48 32.768-12.48 45.248 0l649.408 649.408v-242.752c0-17.664 14.336-32 32-32s32 14.336 32 32v320c0 4.16-0.832 8.32-2.496 12.224-3.264 7.808-9.472 14.080-17.28 17.28-3.904 1.664-8.064 2.496-12.224 2.496h-320c-17.664 0-32-14.336-32-32s14.336-32 32-32h242.752l-649.408-649.344c-12.48-12.544-12.48-32.768 0-45.312z"/>
<glyph unicode="'" glyph-name="arrow_right-down" data-tags="arrow_right-down" d="M864 448c-17.664 0-32-14.336-32-32v-242.752l-649.344 649.408c-12.48 12.48-32.768 12.48-45.248 0s-12.48-32.768 0-45.248l649.344-649.408h-242.752c-17.664 0-32-14.336-32-32s14.336-32 32-32h320c4.16 0 8.32 0.832 12.224 2.496 7.808 3.264 14.080 9.472 17.28 17.28 1.6 3.904 2.496 8 2.496 12.096 0 0.064 0 0.064 0 0.128v320c0 17.664-14.336 32-32 32z"/>
<glyph unicode="(" glyph-name="arrow_left-down" data-tags="arrow_left-down" d="M160 448c-17.664 0-32-14.336-32-32v-320c0-0.064 0-0.064 0-0.128 0-4.16 0.832-8.256 2.432-12.096 1.536-3.776 3.84-7.168 6.656-10.048 0.128-0.128 0.128-0.256 0.256-0.384 0.064-0.064 0.192-0.064 0.256-0.192 2.88-2.816 6.336-5.184 10.112-6.72 3.968-1.6 8.128-2.432 12.288-2.432h320c17.664 0 32 14.336 32 32s-14.336 32-32 32h-242.752l649.408 649.344c12.48 12.48 12.48 32.768 0 45.248s-32.768 12.48-45.248 0l-649.408-649.344v242.752c0 17.664-14.336 32-32 32z"/>
<glyph unicode=")" glyph-name="arrow-up-down" data-tags="arrow-up-down" d="M649.344 777.344c12.48-12.48 32.768-12.48 45.248 0s12.48 32.768 0 45.248l-128 128c-2.944 3.008-6.464 5.312-10.368 6.912-7.808 3.264-16.64 3.264-24.448 0-3.84-1.536-7.232-3.84-10.176-6.72-0.064-0.064-0.128-0.064-0.256-0.128l-128-128c-12.48-12.48-12.48-32.768 0-45.248s32.768-12.48 45.248 0l73.408 73.344v-805.504l-73.344 73.344c-12.48 12.48-32.768 12.48-45.248 0s-12.48-32.768 0-45.248l128-128c0.064-0.064 0.192-0.064 0.256-0.192 2.88-2.816 6.336-5.184 10.112-6.72 7.808-3.264 16.64-3.264 24.448 0 3.904 1.6 7.424 3.968 10.368 6.912l128 128c12.48 12.48 12.48 32.768 0 45.248s-32.768 12.48-45.248 0l-73.344-73.344v805.504l73.344-73.408z"/>
<glyph unicode="*" glyph-name="arrow_up-down_alt" data-tags="arrow_up-down_alt" d="M584.96-54.976c6.272-6.272 14.528-9.408 22.72-9.344 8.256 0 16.448 3.072 22.72 9.344l123.264 123.264c12.48 12.48 12.48 32.768 0 45.248s-32.768 12.48-45.248 0l-68.416-68.416v562.56c0 17.664-14.336 32-32 32s-32-14.336-32-32v-563.2l-73.728 73.728c-12.48 12.48-32.768 12.48-45.248 0s-12.48-32.768 0-45.248l127.936-127.936zM416 255.68c17.664 0 32 14.336 32 32v563.2l73.728-73.728c12.48-12.48 32.768-12.48 45.248 0s12.48 32.768 0 45.248l-127.936 127.936c-6.272 6.272-14.464 9.344-22.72 9.344s-16.448-3.072-22.72-9.344l-123.264-123.264c-12.48-12.48-12.48-32.768 0-45.248s32.768-12.48 45.248 0l68.416 68.416v-562.56c0-17.664 14.336-32 32-32z"/>
<glyph unicode="+" glyph-name="arrow_left-right_alt" data-tags="arrow_left-right_alt" d="M177.856 206.016c12.48 12.48 12.48 32.768 0 45.248l-68.736 68.736h562.88c17.664 0 32 14.336 32 32s-14.336 32-32 32h-562.88l73.408 73.408c12.48 12.48 12.48 32.768 0 45.248s-32.768 12.48-45.248 0l-127.936-127.936c-6.272-6.272-9.344-14.464-9.344-22.72s3.072-16.448 9.344-22.72l123.264-123.264c12.544-12.544 32.768-12.544 45.248 0zM1014.656 566.080l-123.264 123.264c-12.48 12.48-32.768 12.48-45.248 0s-12.48-32.768 0-45.248l68.736-68.736h-562.88c-17.664 0-32-14.336-32-32s14.336-32 32-32h562.88l-73.408-73.408c-12.48-12.48-12.48-32.768 0-45.248s32.768-12.48 45.248 0l127.936 127.936c6.272 6.272 9.344 14.464 9.344 22.72s-3.072 16.448-9.344 22.72z"/>
<glyph unicode="," glyph-name="arrow_left-right" data-tags="arrow_left-right" d="M1021.504 492.224c-1.6 3.904-3.968 7.424-6.912 10.368l-128 128c-12.48 12.48-32.768 12.48-45.248 0s-12.48-32.768 0-45.248l73.408-73.344h-805.504l73.344 73.344c12.48 12.48 12.48 32.768 0 45.248s-32.768 12.48-45.248 0l-128-128c-0.064-0.064-0.128-0.256-0.192-0.32-2.816-2.88-5.12-6.272-6.656-10.048-1.664-3.904-2.496-8.064-2.496-12.224v0c0-0.064 0-0.064 0-0.128 0-4.096 0.896-8.192 2.496-12.096 1.536-3.776 3.84-7.168 6.656-10.048 0.064-0.128 0.128-0.256 0.192-0.384l128-128c12.48-12.48 32.768-12.48 45.248 0s12.48 32.768 0 45.248l-73.344 73.408h805.504l-73.344-73.344c-12.48-12.48-12.48-32.768 0-45.248s32.768-12.48 45.248 0l128 128c2.944 2.944 5.312 6.464 6.912 10.368 1.536 3.904 2.432 8 2.432 12.096 0 0.064 0 0.064 0 0.128v0c0 4.16-0.832 8.32-2.496 12.224z"/>
<glyph unicode="-" glyph-name="arrow_expand_alt2" data-tags="arrow_expand_alt2" d="M128 480c0-17.664 14.336-32 32-32s32 14.336 32 32v242.752l594.752-594.752h-242.752c-17.664 0-32-14.336-32-32s14.336-32 32-32h320c4.16 0 8.32 0.832 12.224 2.496 7.808 3.264 14.080 9.472 17.28 17.28 1.6 3.904 2.496 8 2.496 12.096 0 0.064 0 0.064 0 0.128v320c0 17.664-14.336 32-32 32s-32-14.336-32-32v-242.752l-594.752 594.752h242.752c17.664 0 32 14.336 32 32s-14.336 32-32 32h-320c-4.16 0-8.32-0.832-12.224-2.496-3.84-1.536-7.232-3.84-10.176-6.72-0.064-0.064-0.128-0.064-0.256-0.128-0.064-0.128-0.128-0.32-0.192-0.384-2.816-2.88-5.12-6.272-6.656-10.048-1.664-3.904-2.496-8.064-2.496-12.224v0-320z"/>
<glyph unicode="." glyph-name="arrow_expand_alt" data-tags="arrow_expand_alt" d="M160 448c-17.664 0-32-14.336-32-32v-320c0-0.064 0-0.064 0-0.128 0-4.16 0.832-8.256 2.432-12.096 1.536-3.776 3.84-7.168 6.656-10.048 0.128-0.128 0.128-0.256 0.256-0.384 0.064-0.064 0.192-0.064 0.256-0.192 2.88-2.816 6.336-5.184 10.112-6.72 3.968-1.6 8.128-2.432 12.288-2.432h320c17.664 0 32 14.336 32 32s-14.336 32-32 32h-242.752l594.752 594.752v-242.752c0-17.664 14.336-32 32-32s32 14.336 32 32v320c0 4.16-0.832 8.32-2.496 12.224-3.264 7.808-9.472 14.080-17.28 17.28-3.904 1.664-8.064 2.496-12.224 2.496h-320c-17.664 0-32-14.336-32-32s14.336-32 32-32h242.752l-594.752-594.752v242.752c0 17.664-14.336 32-32 32z"/>
<glyph unicode="/" glyph-name="arrow_condense" data-tags="arrow_condense" d="M950.656 886.656c-12.48 12.48-32.768 12.48-45.248 0l-265.408-265.408v178.752c0 17.664-14.336 32-32 32s-32-14.336-32-32v-256c0-0.064 0-0.064 0-0.128 0-4.096 0.896-8.192 2.496-12.096 1.536-3.776 3.84-7.168 6.656-10.048 0.064-0.128 0.128-0.256 0.192-0.384 0.128-0.064 0.192-0.064 0.256-0.128 2.88-2.816 6.336-5.184 10.112-6.72 3.968-1.664 8.128-2.496 12.288-2.496h256c17.664 0 32 14.336 32 32s-14.336 32-32 32h-178.752l265.344 265.344c12.544 12.544 12.544 32.768 0.064 45.312zM73.344 9.344c12.48-12.48 32.768-12.48 45.248 0l265.408 265.408v-178.752c0-17.664 14.336-32 32-32s32 14.336 32 32v256c0 4.16-0.832 8.32-2.496 12.224-3.264 7.808-9.472 14.080-17.28 17.28-3.904 1.664-8.064 2.496-12.224 2.496h-256c-17.664 0-32-14.336-32-32s14.336-32 32-32h178.752l-265.344-265.344c-12.544-12.544-12.544-32.768-0.064-45.312z"/>
<glyph unicode="0" glyph-name="arrow_expand" data-tags="arrow_expand" d="M957.504 876.224c-3.264 7.808-9.472 14.080-17.28 17.28-3.904 1.664-8.064 2.496-12.224 2.496h-256c-17.664 0-32-14.336-32-32s14.336-32 32-32h178.752l-265.408-265.344c-12.48-12.48-12.48-32.768 0-45.248s32.768-12.48 45.248 0l265.408 265.344v-178.752c0-17.664 14.336-32 32-32s32 14.336 32 32v256c0 4.16-0.832 8.32-2.496 12.224zM96 320c-17.664 0-32-14.336-32-32v-256c0-0.064 0-0.064 0-0.128 0-4.16 0.832-8.256 2.432-12.096 1.536-3.776 3.84-7.168 6.656-10.048 0.128-0.128 0.128-0.256 0.256-0.384 0.064-0.064 0.192-0.064 0.256-0.192 2.88-2.816 6.336-5.184 10.112-6.72 3.968-1.6 8.128-2.432 12.288-2.432h256c17.664 0 32 14.336 32 32s-14.336 32-32 32h-178.752l265.344 265.344c12.48 12.48 12.48 32.768 0 45.248s-32.768 12.48-45.248 0l-265.344-265.344v178.752c0 17.664-14.336 32-32 32z"/>
<glyph unicode="1" glyph-name="arrow_move" data-tags="arrow_move" d="M1021.504 428.224c-1.6 3.904-3.968 7.424-6.912 10.368l-128 128c-12.48 12.48-32.768 12.48-45.248 0s-12.48-32.768 0-45.248l73.408-73.344h-338.752v338.752l73.344-73.344c12.48-12.48 32.768-12.48 45.248 0s12.48 32.768 0 45.248l-128 128c-0.064 0.064-0.256 0.128-0.32 0.192-2.88 2.816-6.272 5.12-10.048 6.656-3.904 1.664-8.064 2.496-12.224 2.496-0.064 0-0.064 0-0.128 0-4.096 0-8.192-0.896-12.096-2.496-3.776-1.536-7.168-3.84-10.048-6.656-0.128-0.064-0.256-0.128-0.384-0.192l-128-128c-12.48-12.48-12.48-32.768 0-45.248s32.768-12.48 45.248 0l73.408 73.344v-338.752h-338.752l73.344 73.344c12.48 12.48 12.48 32.768 0 45.248s-32.768 12.48-45.248 0l-128-128c-0.064-0.064-0.128-0.256-0.192-0.32-2.816-2.88-5.12-6.272-6.656-10.048-1.664-3.904-2.496-8.064-2.496-12.224 0-0.064 0-0.064 0-0.128 0-4.096 0.896-8.192 2.496-12.096 1.536-3.776 3.84-7.168 6.656-10.048 0.064-0.128 0.128-0.256 0.192-0.384l128-128c12.48-12.48 32.768-12.48 45.248 0s12.48 32.768 0 45.248l-73.344 73.408h338.752v-338.752l-73.344 73.344c-12.48 12.48-32.768 12.48-45.248 0s-12.48-32.768 0-45.248l128-128c2.944-2.944 6.464-5.312 10.368-6.912 3.904-1.536 8-2.432 12.096-2.432 0.064 0 0.064 0 0.128 0 4.16 0 8.32 0.832 12.224 2.496 3.904 1.6 7.424 3.968 10.368 6.912l128 128c12.48 12.48 12.48 32.768 0 45.248s-32.768 12.48-45.248 0l-73.344-73.408v338.752h338.752l-73.344-73.344c-12.48-12.48-12.48-32.768 0-45.248s32.768-12.48 45.248 0l128 128c2.944 2.944 5.312 6.464 6.912 10.368 1.536 3.904 2.432 8 2.432 12.096 0 0.064 0 0.064 0 0.128 0 4.16-0.832 8.32-2.496 12.224z"/>
<glyph unicode="2" glyph-name="arrow_carrot-up" data-tags="arrow_carrot-up" d="M358.976 313.6l185.024 185.024 185.024-185.024c12.48-12.48 32.768-12.48 45.248 0s12.48 32.768 0 45.248l-207.552 207.552c-6.272 6.272-14.464 9.344-22.72 9.344s-16.448-3.072-22.72-9.344l-207.552-207.552c-12.48-12.48-12.48-32.768 0-45.248s32.768-12.48 45.248 0z"/>
<glyph unicode="3" glyph-name="arrow_carrot-down" data-tags="arrow_carrot-down" d="M729.024 518.4l-185.024-185.024-185.024 185.024c-12.48 12.48-32.768 12.48-45.248 0s-12.48-32.768 0-45.248l207.552-207.552c6.272-6.272 14.528-9.408 22.72-9.344 8.256 0 16.448 3.072 22.72 9.344l207.552 207.552c12.48 12.48 12.48 32.768 0 45.248s-32.768 12.48-45.248 0z"/>
<glyph unicode="4" glyph-name="arrow_carrot-left" data-tags="arrow_carrot-left" d="M393.6 393.28l207.552-207.552c12.48-12.48 32.768-12.48 45.248 0s12.48 32.768 0 45.248l-185.024 185.024 185.024 185.024c12.48 12.48 12.48 32.768 0 45.248s-32.768 12.48-45.248 0l-207.552-207.552c-6.272-6.272-9.344-14.464-9.344-22.72s3.072-16.448 9.344-22.72z"/>
<glyph unicode="5" glyph-name="arrow_carrot-right" data-tags="arrow_carrot-right" d="M441.6 185.728c12.48-12.48 32.768-12.48 45.248 0l207.552 207.552c6.272 6.272 9.408 14.528 9.344 22.72 0 8.256-3.072 16.448-9.344 22.72l-207.552 207.552c-12.48 12.48-32.768 12.48-45.248 0s-12.48-32.768 0-45.248l185.024-185.024-185.024-185.024c-12.48-12.48-12.48-32.768 0-45.248z"/>
<glyph unicode="6" glyph-name="arrow_carrot-2up" data-tags="arrow_carrot-2up" d="M750.464 505.216l-214.080 189.376c-6.4 6.4-14.784 9.472-23.168 9.344-8.448 0.128-16.832-2.944-23.232-9.344l-214.080-189.376c-12.544-12.544-12.544-32.96 0-45.504s32.96-12.544 45.504 0l191.744 169.664 191.744-169.664c12.544-12.544 32.96-12.544 45.504 0 12.672 12.544 12.672 32.896 0.064 45.504zM536.384 465.088c-6.4 6.4-14.784 9.472-23.168 9.344-8.448 0.128-16.832-2.944-23.232-9.344l-214.080-189.376c-12.544-12.544-12.544-32.96 0-45.504s32.96-12.544 45.504 0l191.744 169.6 191.744-169.6c12.544-12.544 32.96-12.544 45.504 0s12.544 32.96 0 45.504l-214.016 189.376z"/>
<glyph unicode="7" glyph-name="arrow_carrot-2down" data-tags="arrow_carrot-2down" d="M702.592 436.352l-191.744-169.6-191.744 169.6c-12.544 12.544-32.96 12.544-45.504 0s-12.544-32.96 0-45.504l214.080-189.376c6.4-6.4 14.784-9.472 23.168-9.344 8.384-0.128 16.768 2.88 23.168 9.28l214.080 189.376c12.544 12.544 12.544 32.96 0 45.504s-32.96 12.608-45.504 0.064zM748.096 665.856c-12.544 12.544-32.96 12.544-45.504 0l-191.744-169.6-191.744 169.6c-12.608 12.544-33.024 12.544-45.568 0s-12.544-32.96 0-45.504l214.080-189.376c6.4-6.4 14.784-9.472 23.168-9.344 8.384-0.128 16.832 2.944 23.168 9.344l214.080 189.376c12.672 12.544 12.672 32.896 0.064 45.504z"/>
<glyph unicode="8" glyph-name="arrow_carrot-2left" data-tags="arrow_carrot-2left" d="M265.408 425.984l189.376-214.080c12.544-12.544 32.96-12.544 45.504 0s12.544 32.96 0 45.504l-169.6 191.744 169.6 191.744c12.544 12.544 12.544 32.96 0 45.504s-32.96 12.544-45.504 0l-189.376-214.016c-6.4-6.4-9.408-14.784-9.344-23.168-0.064-8.384 2.944-16.832 9.344-23.232zM729.856 686.464c-12.544 12.544-32.96 12.544-45.504 0l-189.44-214.080c-6.4-6.4-9.472-14.784-9.344-23.168-0.064-8.384 2.944-16.832 9.344-23.232l189.376-214.080c12.544-12.544 32.96-12.544 45.504 0s12.544 32.96 0 45.504l-169.6 191.744 169.6 191.744c12.608 12.608 12.608 33.024 0.064 45.568z"/>
<glyph unicode="9" glyph-name="arrow_carrot-2right" data-tags="arrow_carrot-2right" d="M758.592 470.016l-189.376 214.080c-12.544 12.544-32.96 12.544-45.504 0s-12.544-32.96 0-45.504l169.6-191.744-169.6-191.744c-12.544-12.544-12.544-32.96 0-45.504s32.96-12.544 45.504 0l189.376 214.080c6.4 6.4 9.472 14.784 9.344 23.168 0.064 8.384-2.944 16.768-9.344 23.168zM294.144 209.536c12.544-12.544 32.96-12.544 45.504 0l189.376 214.080c6.4 6.4 9.472 14.784 9.344 23.168 0.128 8.384-2.944 16.832-9.344 23.168l-189.312 214.144c-12.544 12.544-32.96 12.544-45.504 0s-12.544-32.96 0-45.504l169.6-191.744-169.6-191.744c-12.608-12.608-12.608-33.024-0.064-45.568z"/>
<glyph unicode=":" glyph-name="arrow_carrot-up_alt2" data-tags="arrow_carrot-up_alt2" d="M568.72 564.4c-6.272 6.272-14.464 9.344-22.72 9.344s-16.448-3.072-22.72-9.344l-207.552-207.552c-12.48-12.48-12.48-32.768 0-45.248s32.768-12.48 45.248 0l185.024 185.024 185.024-185.024c12.48-12.48 32.768-12.48 45.248 0s12.48 32.768 0 45.248l-207.552 207.552zM548.112 889.712c-263.936 0-477.888-213.952-477.888-477.888s214.016-477.824 477.888-477.824 477.888 213.952 477.888 477.888-213.952 477.824-477.888 477.824zM548.112-2c-228.224 0-413.888 185.664-413.888 413.888s185.664 413.888 413.888 413.888 413.888-185.728 413.888-413.888-185.664-413.888-413.888-413.888z"/>
<glyph unicode=";" glyph-name="arrow_carrot-down_alt2" data-tags="arrow_carrot-down_alt2" d="M729.024 518.4l-185.024-185.024-185.024 185.024c-12.48 12.48-32.768 12.48-45.248 0s-12.48-32.768 0-45.248l207.552-207.552c6.272-6.272 14.528-9.408 22.72-9.344 8.256 0 16.448 3.072 22.72 9.344l207.552 207.552c12.48 12.48 12.48 32.768 0 45.248s-32.768 12.48-45.248 0zM546.304 891.456c-263.808 0-477.696-213.888-477.696-477.696-0.064-263.872 213.824-477.76 477.696-477.76 263.808 0 477.696 213.888 477.696 477.696 0 263.872-213.888 477.76-477.696 477.76zM546.304 0c-228.096 0-413.696 185.6-413.696 413.696s185.6 413.696 413.696 413.696c228.096 0.064 413.696-185.536 413.696-413.696 0-228.096-185.6-413.696-413.696-413.696z"/>
<glyph unicode="&lt;" glyph-name="arrow_carrot-left_alt2" data-tags="arrow_carrot-left_alt2" d="M646.4 646.272c-12.48 12.48-32.768 12.48-45.248 0l-207.552-207.552c-6.272-6.272-9.344-14.464-9.344-22.72s3.072-16.448 9.344-22.72l207.552-207.552c12.48-12.48 32.768-12.48 45.248 0s12.48 32.768 0 45.248l-185.024 185.024 185.024 185.024c12.48 12.48 12.48 32.768 0 45.248zM544 896c-265.088 0-480-214.912-480-480s214.912-480 480-480 480 214.912 480 480-214.912 480-480 480zM544 0c-229.376 0-416 186.624-416 416s186.624 416 416 416 416-186.624 416-416-186.624-416-416-416z"/>
<glyph unicode="=" glyph-name="arrow_carrot-right_alt2" data-tags="arrow_carrot-right_alt2" d="M694.4 438.72l-207.552 207.552c-12.48 12.48-32.768 12.48-45.248 0s-12.48-32.768 0-45.248l185.024-185.024-185.024-185.024c-12.48-12.48-12.48-32.768 0-45.248s32.768-12.48 45.248 0l207.552 207.552c6.272 6.272 9.408 14.528 9.344 22.72 0 8.256-3.072 16.448-9.344 22.72zM546.304 891.392c-263.808 0-477.696-213.888-477.696-477.696s213.888-477.696 477.696-477.696 477.696 213.888 477.696 477.696-213.888 477.696-477.696 477.696zM546.304 0c-228.096 0-413.696 185.6-413.696 413.696s185.6 413.696 413.696 413.696 413.696-185.6 413.696-413.696-185.6-413.696-413.696-413.696z"/>
<glyph unicode="&gt;" glyph-name="arrow_carrot-2up_alt2" data-tags="arrow_carrot-2up_alt2" d="M568.384 662.592c-6.4 6.4-14.784 9.472-23.168 9.344-8.448 0.128-16.832-2.944-23.232-9.344l-214.080-189.376c-12.544-12.544-12.544-32.96 0-45.504s32.96-12.544 45.504 0l191.744 169.664 191.744-169.664c12.544-12.544 32.96-12.544 45.504 0s12.544 32.96 0 45.504l-214.016 189.376zM568.384 433.088c-6.4 6.4-14.784 9.472-23.168 9.344-8.448 0.128-16.832-2.944-23.232-9.344l-214.080-189.376c-12.544-12.544-12.544-32.96 0-45.504s32.96-12.544 45.504 0l191.744 169.6 191.744-169.6c12.544-12.544 32.96-12.544 45.504 0s12.544 32.96 0 45.504l-214.016 189.376zM546.304 891.392c-263.808 0-477.696-213.888-477.696-477.696s213.888-477.696 477.696-477.696 477.696 213.888 477.696 477.696-213.888 477.696-477.696 477.696zM546.304 0c-228.096 0-413.696 185.6-413.696 413.696s185.6 413.696 413.696 413.696 413.696-185.6 413.696-413.696-185.6-413.696-413.696-413.696z"/>
<glyph unicode="?" glyph-name="arrow_carrot-2down_alt2" data-tags="arrow_carrot-2down_alt2" d="M734.592 404.352l-191.744-169.6-191.744 169.6c-12.544 12.544-32.96 12.544-45.504 0s-12.544-32.96 0-45.504l214.080-189.376c6.4-6.4 14.784-9.472 23.168-9.344 8.384-0.128 16.832 2.944 23.168 9.344l214.080 189.376c12.544 12.544 12.544 32.96 0 45.504s-32.96 12.544-45.504 0zM734.592 633.856l-191.744-169.6-191.744 169.6c-12.608 12.544-33.024 12.544-45.568 0s-12.544-32.96 0-45.504l214.080-189.376c6.4-6.4 14.784-9.472 23.168-9.344 8.384-0.128 16.832 2.944 23.168 9.344l214.080 189.376c12.544 12.544 12.544 32.96 0 45.504s-32.896 12.544-45.44 0zM546.304 891.392c-263.808 0-477.696-213.888-477.696-477.696s213.888-477.696 477.696-477.696 477.696 213.888 477.696 477.696-213.888 477.696-477.696 477.696zM546.304 0c-228.096 0-413.696 185.6-413.696 413.696s185.6 413.696 413.696 413.696 413.696-185.6 413.696-413.696-185.6-413.696-413.696-413.696z"/>
<glyph unicode="@" glyph-name="arrow_carrot-2left_alt2" data-tags="arrow_carrot-2left_alt2" d="M362.688 417.216l169.6 191.744c12.544 12.544 12.544 32.96 0 45.504s-32.96 12.544-45.504 0l-189.376-214.080c-6.4-6.4-9.472-14.784-9.344-23.168-0.064-8.384 2.944-16.832 9.344-23.232l189.376-214.080c12.544-12.544 32.96-12.544 45.504 0s12.544 32.96 0 45.504l-169.6 191.808zM761.856 654.464c-12.544 12.544-32.96 12.544-45.504 0l-189.44-214.080c-6.4-6.4-9.472-14.784-9.344-23.168-0.064-8.384 2.944-16.832 9.344-23.232l189.376-214.080c12.544-12.544 32.96-12.544 45.504 0s12.544 32.96 0 45.504l-169.6 191.744 169.6 191.744c12.608 12.608 12.608 33.024 0.064 45.568zM544 896c-265.088 0-480-214.912-480-480s214.912-480 480-480 480 214.912 480 480-214.912 480-480 480zM544 0c-229.376 0-416 186.624-416 416s186.624 416 416 416 416-186.624 416-416-186.624-416-416-416z"/>
<glyph unicode="A" glyph-name="arrow_carrot-2right_alt2" data-tags="arrow_carrot-2right_alt2" d="M790.592 438.016l-189.376 214.080c-12.544 12.544-32.96 12.544-45.504 0s-12.544-32.96 0-45.504l169.6-191.744-169.6-191.744c-12.544-12.544-12.544-32.96 0-45.504s32.96-12.544 45.504 0l189.376 214.080c6.4 6.4 9.472 14.784 9.344 23.168 0.064 8.384-2.944 16.768-9.344 23.168zM570.432 414.848c0.128 8.384-2.944 16.832-9.344 23.168l-189.376 214.080c-12.544 12.544-32.96 12.544-45.504 0s-12.544-32.96 0-45.504l169.6-191.744-169.6-191.744c-12.544-12.544-12.544-32.96 0-45.504s32.96-12.544 45.504 0l189.376 214.080c6.4 6.336 9.472 14.72 9.344 23.168zM544 896c-265.088 0-480-214.912-480-480s214.912-480 480-480 480 214.912 480 480-214.912 480-480 480zM544 0c-229.376 0-416 186.624-416 416s186.624 416 416 416 416-186.624 416-416-186.624-416-416-416z"/>
<glyph unicode="B" glyph-name="arrow_triangle-up" data-tags="arrow_triangle-up" d="M287.936 320h446.912c9.152 0 17.28 4.416 23.040 11.264l0.128-0.128c12.48 13.888 12.48 36.416 0 50.304l-223.936 248.128c-12.48 13.888-32.704 13.888-45.12 0-0.32-0.384-0.448-0.896-0.768-1.28l-223.488-246.848c-12.48-13.888-12.48-36.416 0-50.304 0.128-0.128 0.256-0.192 0.384-0.32 5.824-6.656 13.824-10.816 22.848-10.816z"/>
<glyph unicode="C" glyph-name="arrow_triangle-down" data-tags="arrow_triangle-down" d="M533.824 330.432c0.32 0.384 0.448 0.896 0.768 1.28l223.424 246.848c12.48 13.888 12.48 36.416 0 50.304-0.128 0.128-0.256 0.192-0.384 0.256-5.76 6.72-13.824 10.88-22.784 10.88h-446.912c-9.152 0-17.28-4.416-23.104-11.264l-0.128 0.128c-12.48-13.888-12.48-36.416 0-50.304l223.936-248.128c12.48-13.888 32.704-13.888 45.184 0z"/>
<glyph unicode="D" glyph-name="arrow_triangle-left" data-tags="arrow_triangle-left" d="M578.56 695.296l-248.128-224c-13.888-12.48-13.888-32.704 0-45.12 0.384-0.32 0.896-0.448 1.28-0.768l246.848-223.424c13.888-12.48 36.416-12.48 50.304 0 0.128 0.128 0.128 0.256 0.256 0.384 6.72 5.76 10.88 13.824 10.88 22.784v446.912c0 9.152-4.416 17.28-11.264 23.040l0.128 0.128c-13.888 12.48-36.416 12.48-50.304 0.064z"/>
<glyph unicode="E" glyph-name="arrow_triangle-right" data-tags="arrow_triangle-right" d="M444.608 200.768l244.864 224.512c13.696 12.48 13.696 32.768 0 45.248-0.384 0.32-0.896 0.448-1.28 0.768l-243.584 224c-13.696 12.48-35.968 12.48-49.664 0-0.064-0.128-0.128-0.32-0.256-0.448-6.528-5.76-10.688-13.824-10.688-22.848v-448c0-9.152 4.352-17.28 11.072-23.104l-0.128-0.128c13.76-12.544 35.968-12.544 49.664 0z"/>
<glyph unicode="F" glyph-name="arrow_triangle-up_alt2" data-tags="arrow_triangle-up_alt2" d="M544 896c-265.088 0-480-214.912-480-480s214.912-480 480-480 480 214.912 480 480-214.912 480-480 480zM544 0c-229.376 0-416 186.624-416 416s186.624 416 416 416 416-186.624 416-416-186.624-416-416-416zM563.2 565.568c-10.88 13.888-28.608 13.888-39.488 0-0.32-0.384-0.384-0.896-0.704-1.28l-195.456-246.848c-10.88-13.888-10.88-36.416 0-50.304 0.064-0.128 0.256-0.128 0.32-0.256 5.056-6.72 12.096-10.88 19.968-10.88h391.040c8 0 15.104 4.416 20.16 11.264l0.128-0.128c10.88 13.888 10.88 36.416 0 50.304l-195.968 248.128z"/>
<glyph unicode="G" glyph-name="arrow_triangle-down_alt2" data-tags="arrow_triangle-down_alt2" d="M544 896c-265.088 0-480-214.912-480-480s214.912-480 480-480 480 214.912 480 480-214.912 480-480 480zM544 0c-229.376 0-416 186.624-416 416s186.624 416 416 416 416-186.624 416-416-186.624-416-416-416zM759.488 501.184c-5.056 6.656-12.096 10.816-19.968 10.816h-391.040c-8 0-15.104-4.416-20.16-11.264l-0.128 0.128c-10.88-13.888-10.88-36.416 0-50.304l195.968-248.128c10.88-13.888 28.608-13.888 39.488 0 0.32 0.384 0.384 0.896 0.704 1.28l195.52 246.848c10.88 13.888 10.88 36.416 0 50.304-0.128 0.128-0.256 0.192-0.384 0.32z"/>
<glyph unicode="H" glyph-name="arrow_triangle-left_alt2" data-tags="arrow_triangle-left_alt2" d="M544 896c-265.088 0-480-214.912-480-480s214.912-480 480-480 480 214.912 480 480-214.912 480-480 480zM544 0c-229.376 0-416 186.624-416 416s186.624 416 416 416 416-186.624 416-416-186.624-416-416-416zM628.864 632.448c-13.888 10.88-36.416 10.88-50.304 0l-248.128-195.968c-13.888-10.88-13.888-28.608 0-39.488 0.384-0.32 0.896-0.384 1.28-0.704l246.848-195.52c13.888-10.88 36.416-10.88 50.304 0 0.128 0.064 0.128 0.256 0.256 0.32 6.72 5.12 10.88 12.16 10.88 20.032v391.040c0 8-4.416 15.104-11.264 20.16l0.128 0.128z"/>
<glyph unicode="I" glyph-name="arrow_triangle-right_alt2" data-tags="arrow_triangle-right_alt2" d="M544 896c-265.088 0-480-214.912-480-480s214.912-480 480-480 480 214.912 480 480-214.912 480-480 480zM544 0c-229.376 0-416 186.624-416 416s186.624 416 416 416 416-186.624 416-416-186.624-416-416-416zM756.288 436.928l-246.848 195.52c-13.888 10.88-36.416 10.88-50.304 0-0.128-0.128-0.192-0.256-0.32-0.32-6.656-5.056-10.816-12.096-10.816-19.968v-391.040c0-8 4.416-15.104 11.264-20.16l-0.128-0.128c13.888-10.88 36.416-10.88 50.304 0l248.128 195.968c13.888 10.88 13.888 28.608 0 39.488-0.384 0.32-0.896 0.384-1.28 0.64z"/>
<glyph unicode="J" glyph-name="arrow_back" data-tags="arrow_back" d="M73.344 457.344l192-192c12.48-12.48 32.768-12.48 45.248 0s12.48 32.768 0 45.248l-137.344 137.408h466.752c128 0 192-118.144 192-224 0-17.664 14.336-32 32-32s32 14.336 32 32c0 141.184-64 288-256 288h-466.752l137.344 137.344c12.48 12.48 12.48 32.768 0 45.248s-32.768 12.48-45.248 0l-192-192c-12.48-12.48-12.48-32.704 0-45.248z"/>
<glyph unicode="K" glyph-name="icon_minus-06" data-tags="icon_minus-06" d="M288 384h512c17.664 0 32 14.336 32 32s-14.336 32-32 32h-512c-17.664 0-32-14.336-32-32s14.336-32 32-32z"/>
<glyph unicode="L" glyph-name="icon_plus" data-tags="icon_plus" d="M288 384h224v-224c0-17.664 14.336-32 32-32s32 14.336 32 32v224h224c17.664 0 32 14.336 32 32s-14.336 32-32 32h-224v224c0 17.664-14.336 32-32 32s-32-14.336-32-32v-224h-224c-17.664 0-32-14.336-32-32s14.336-32 32-32z"/>
<glyph unicode="M" glyph-name="icon_close" data-tags="icon_close" d="M289.6 225.6c12.48-12.48 32.768-12.48 45.248 0l177.152 177.152 177.152-177.152c12.48-12.48 32.768-12.48 45.248 0s12.48 32.768 0 45.248l-177.152 177.152 177.152 177.152c12.48 12.48 12.48 32.768 0 45.248s-32.768 12.48-45.248 0l-177.152-177.152-177.152 177.152c-12.48 12.48-32.768 12.48-45.248 0s-12.48-32.768 0-45.248l177.152-177.152-177.152-177.152c-12.48-12.48-12.48-32.768 0-45.248z"/>
<glyph unicode="N" glyph-name="icon_check" data-tags="icon_check" d="M441.216 141.184c1.28-1.024 2.048-2.432 3.392-3.392 1.92-1.28 4.096-1.536 6.144-2.432 2.432-1.152 4.8-2.24 7.36-2.944 2.496-0.64 4.928-0.96 7.488-1.152 3.648-0.384 7.168-0.384 10.752 0.128 1.472 0.256 2.88 0.64 4.352 1.024 4.416 1.088 8.512 2.816 12.544 5.248 0.704 0.448 1.28 0.96 1.984 1.408 2.624 1.792 5.44 3.136 7.68 5.568 1.6 1.728 2.304 3.968 3.584 5.888 0.064 0.064 0.192 0.128 0.192 0.192l381.376 611.264c13.568 20.672 7.744 48.448-12.992 62.016s-48.448 7.744-62.016-12.992l-352.256-564.544-194.816 189.504c-18.176 16.832-46.464 15.744-63.296-2.432-16.768-18.176-15.68-46.528 2.496-63.296l234.368-228.032c0.448-0.448 1.088-0.576 1.664-1.024z"/>
<glyph unicode="O" glyph-name="icon_minus_alt2" data-tags="icon_minus_alt2" horiz-adv-x="960" d="M480 960c-265.088 0-480-214.912-480-480s214.912-480 480-480 480 214.912 480 480-214.912 480-480 480zM480 64c-229.376 0-416 186.624-416 416s186.624 416 416 416 416-186.624 416-416-186.624-416-416-416zM736 512h-512c-17.664 0-32-14.336-32-32s14.336-32 32-32h512c17.664 0 32 14.336 32 32s-14.336 32-32 32z"/>
<glyph unicode="P" glyph-name="icon_plus_alt2" data-tags="icon_plus_alt2" horiz-adv-x="960" d="M480 960c-265.088 0-480-214.912-480-480s214.912-480 480-480 480 214.912 480 480-214.912 480-480 480zM480 64c-229.376 0-416 186.624-416 416s186.624 416 416 416 416-186.624 416-416-186.624-416-416-416zM736 512h-224v224c0 17.664-14.336 32-32 32s-32-14.336-32-32v-224h-224c-17.664 0-32-14.336-32-32s14.336-32 32-32h224v-224c0-17.664 14.336-32 32-32s32 14.336 32 32v224h224c17.664 0 32 14.336 32 32s-14.336 32-32 32z"/>
<glyph unicode="Q" glyph-name="icon_close_alt2" data-tags="icon_close_alt2" d="M544 896c-265.088 0-480-214.912-480-480s214.912-480 480-480 480 214.912 480 480-214.912 480-480 480zM544 0c-229.376 0-416 186.624-416 416s186.624 416 416 416 416-186.624 416-416-186.624-416-416-416zM721.152 638.4l-175.936-175.936-157.76 175.936c-12.48 12.48-32.768 12.48-45.248 0s-12.48-32.768 0-45.248l157.824-175.936-178.368-178.368c-12.48-12.48-12.48-32.768 0-45.248s32.768-12.48 45.248 0l175.936 175.936 157.824-175.936c12.48-12.48 32.768-12.48 45.248 0s12.48 32.768 0 45.248l-157.888 175.936 178.368 178.368c12.48 12.48 12.48 32.768 0 45.248s-32.768 12.48-45.248 0z"/>
<glyph unicode="R" glyph-name="icon_check_alt2" data-tags="icon_check_alt2" d="M514.688 960c-282.752 0-512-229.248-512-512s229.248-512 512-512 512 229.248 512 512-229.248 512-512 512zM514.688 0c-247.040 0-448 200.96-448 448s200.96 448 448 448 448-200.96 448-448-201.024-448-448-448zM738.944 651.648c-20.672 13.568-48.448 7.744-62.016-12.992l-216.064-330.176-103.296 95.616c-18.176 16.768-46.528 15.68-63.36-2.496s-15.68-46.464 2.496-63.296l142.784-132.096c0.512-0.448 1.152-0.576 1.664-1.024 1.28-1.024 2.048-2.432 3.392-3.392 1.92-1.28 4.096-1.536 6.144-2.432 2.432-1.152 4.8-2.24 7.36-2.944 2.496-0.64 4.928-0.96 7.488-1.152 3.648-0.384 7.168-0.384 10.752 0.128 1.472 0.256 2.88 0.64 4.352 1.024 4.416 1.088 8.512 2.816 12.544 5.248 0.704 0.448 1.28 0.96 1.984 1.408 2.624 1.792 5.44 3.136 7.68 5.568 1.6 1.728 2.304 3.968 3.584 5.888 0.064 0.064 0.192 0.128 0.192 0.192l245.248 374.848c13.568 20.736 7.744 48.512-12.928 62.080z"/>
<glyph unicode="S" glyph-name="icon_zoom-out_alt" data-tags="icon_zoom-out_alt" d="M608 960c-229.76 0-416-186.24-416-416 0-98.88 34.624-189.504 92.224-260.928l-271.168-271.168c-17.344-17.344-17.344-45.504 0-62.848s45.504-17.344 62.848 0l271.168 271.168c71.424-57.6 162.048-92.224 260.928-92.224 229.76 0 416 186.24 416 416s-186.24 416-416 416zM608 192c-194.112 0-352 157.888-352 352s157.888 352 352 352 352-157.888 352-352-157.888-352-352-352zM800 576h-384c-17.664 0-32-14.336-32-32s14.336-32 32-32h384c17.664 0 32 14.336 32 32s-14.336 32-32 32z"/>
<glyph unicode="T" glyph-name="icon_zoom-in_alt" data-tags="icon_zoom-in_alt" d="M608 960c-229.76 0-416-186.24-416-416 0-98.88 34.624-189.504 92.224-260.928l-271.168-271.168c-17.344-17.344-17.344-45.504 0-62.848s45.504-17.344 62.848 0l271.168 271.168c71.424-57.6 162.048-92.224 260.928-92.224 229.76 0 416 186.24 416 416s-186.24 416-416 416zM608 192c-194.112 0-352 157.888-352 352s157.888 352 352 352 352-157.888 352-352-157.888-352-352-352zM800 576h-160v160c0 17.664-14.336 32-32 32s-32-14.336-32-32v-160h-160c-17.664 0-32-14.336-32-32s14.336-32 32-32h160v-160c0-17.664 14.336-32 32-32s32 14.336 32 32v160h160c17.664 0 32 14.336 32 32s-14.336 32-32 32z"/>
<glyph unicode="U" glyph-name="icon_search" data-tags="icon_search" d="M608 960c-229.76 0-416-186.24-416-416 0-98.88 34.688-189.632 92.288-261.056l-274.944-274.944c-17.28-17.28-17.28-45.376 0-62.656s45.376-17.28 62.656 0l274.944 274.944c71.424-57.6 162.176-92.288 261.056-92.288 229.76 0 416 186.24 416 416s-186.24 416-416 416zM608 192c-194.112 0-352 157.888-352 352s157.888 352 352 352 352-157.888 352-352-157.888-352-352-352z"/>
<glyph unicode="V" glyph-name="icon_box-empty" data-tags="icon_box-empty" d="M832 832h-640c-35.328 0-64-28.672-64-64v-640c0-35.328 28.672-64 64-64h640c35.328 0 64 28.672 64 64v640c0 35.328-28.672 64-64 64zM832 128h-640v640h640v-640z"/>
<glyph unicode="W" glyph-name="icon_box-selected" data-tags="icon_box-selected" d="M832 832h-640c-35.328 0-64-28.672-64-64v-640c0-35.328 28.672-64 64-64h640c35.328 0 64 28.672 64 64v640c0 35.328-28.672 64-64 64zM832 128h-640v640h640v-640zM384 256h256c35.328 0 64 28.672 64 64v256c0 35.328-28.672 64-64 64h-256c-35.328 0-64-28.672-64-64v-256c0-35.328 28.672-64 64-64z"/>
<glyph unicode="X" glyph-name="icon_minus-box" data-tags="icon_minus-box" d="M256 640v-448c0-35.328 28.672-64 64-64h448c35.328 0 64 28.672 64 64v448c0 35.328-28.672 64-64 64h-448c-35.328 0-64-28.672-64-64zM768 192h-448v448h448v-448zM416 384h256c17.664 0 32 14.336 32 32s-14.336 32-32 32h-256c-17.664 0-32-14.336-32-32s14.336-32 32-32z"/>
<glyph unicode="Y" glyph-name="icon_plus-box" data-tags="icon_plus-box" d="M256 640v-448c0-35.328 28.672-64 64-64h448c35.328 0 64 28.672 64 64v448c0 35.328-28.672 64-64 64h-448c-35.328 0-64-28.672-64-64zM768 192h-448v448h448v-448zM416 384h96v-96c0-17.664 14.336-32 32-32s32 14.336 32 32v96h96c17.664 0 32 14.336 32 32s-14.336 32-32 32h-96v96c0 17.664-14.336 32-32 32s-32-14.336-32-32v-96h-96c-17.664 0-32-14.336-32-32s14.336-32 32-32z"/>
<glyph unicode="Z" glyph-name="icon_box-checked" data-tags="icon_box-checked" d="M832 128h-640v640h472.064l39.936 64h-512c-35.328 0-64-28.672-64-64v-640c0-35.328 28.672-64 64-64h640c35.328 0 64 28.672 64 64v422.592l-64-102.592v-320zM939.712 888.704c-7.552 4.928-16.064 7.296-24.448 7.296-14.592 0-28.928-7.168-37.504-20.288l-347.904-501.888-134.592 153.6c-18.24 16.832-46.528 15.744-63.36-2.432s-15.68-46.528 2.496-63.296l161.792-184.64c1.024-1.664 2.624-2.944 3.904-4.48l4.096-4.672c0.512-0.448 1.152-0.576 1.664-1.024 1.28-1.024 2.048-2.432 3.392-3.392 2.752-1.792 5.76-2.944 8.768-4.032 0.704-0.256 1.28-0.704 1.984-0.896 4.48-1.472 9.152-2.368 13.76-2.368 0.192 0 0.384 0.128 0.576 0.128 12.16-0.064 24.256 4.416 33.152 14.016 1.664 1.792 2.304 3.968 3.648 5.952 0.064 0.064 0.128 0.128 0.192 0.192l381.376 550.208c13.504 20.672 7.744 48.448-12.992 62.016z"/>
<glyph unicode="[" glyph-name="icon_circle-empty" data-tags="icon_circle-empty" d="M512 832c-212.096 0-384-171.904-384-384s171.904-384 384-384 384 171.904 384 384-171.904 384-384 384zM512 128c-176.448 0-320 143.552-320 320s143.552 320 320 320 320-143.552 320-320-143.552-320-320-320z"/>
<glyph unicode="\" glyph-name="icon_circle-slelected" data-tags="icon_circle-slelected" d="M512 832c-212.096 0-384-171.904-384-384s171.904-384 384-384 384 171.904 384 384-171.904 384-384 384zM512 128c-176.448 0-320 143.552-320 320s143.552 320 320 320 320-143.552 320-320-143.552-320-320-320zM320 448c0-106.039 85.961-192 192-192s192 85.961 192 192c0 106.039-85.961 192-192 192s-192-85.961-192-192z"/>
<glyph unicode="]" glyph-name="icon_stop_alt2" data-tags="icon_stop_alt2" d="M512 960c-282.752 0-512-229.248-512-512s229.248-512 512-512 512 229.248 512 512-229.248 512-512 512zM512 0c-247.040 0-448 200.96-448 448s200.96 448 448 448 448-200.96 448-448-200.96-448-448-448zM640 640h-256c-35.328 0-64-28.672-64-64v-256c0-35.328 28.672-64 64-64h256c35.328 0 64 28.672 64 64v256c0 35.328-28.672 64-64 64z"/>
<glyph unicode="^" glyph-name="icon_stop" data-tags="icon_stop" d="M640 256c35.328 0 64 28.672 64 64v256c0 35.328-28.672 64-64 64h-256c-35.328 0-64-28.672-64-64v-256c0-35.328 28.672-64 64-64h256z"/>
<glyph unicode="_" glyph-name="icon_pause_alt2" data-tags="icon_pause_alt2" d="M512-64c282.752 0 512 229.248 512 512s-229.248 512-512 512-512-229.248-512-512 229.248-512 512-512zM512 896c247.040 0 448-200.96 448-448s-200.96-448-448-448-448 200.96-448 448 200.96 448 448 448zM384 256c35.328 0 64 28.672 64 64v256c0 35.328-28.672 64-64 64s-64-28.672-64-64v-256c0-35.328 28.672-64 64-64zM640 256c35.328 0 64 28.672 64 64v256c0 35.328-28.672 64-64 64s-64-28.672-64-64v-256c0-35.328 28.672-64 64-64z"/>
<glyph unicode="`" glyph-name="icon_pause" data-tags="icon_pause" d="M384 640c-35.328 0-64-28.672-64-64v-256c0-35.328 28.672-64 64-64s64 28.672 64 64v256c0 35.328-28.672 64-64 64zM576 320c0-35.328 28.672-64 64-64s64 28.672 64 64v256c0 35.328-28.672 64-64 64s-64-28.672-64-64v-256z"/>
<glyph unicode="a" glyph-name="icon_menu" data-tags="icon_menu" d="M224 448h576c17.664 0 32 14.336 32 32s-14.336 32-32 32h-576c-17.664 0-32-14.336-32-32s14.336-32 32-32zM224 640h576c17.664 0 32 14.336 32 32s-14.336 32-32 32h-576c-17.664 0-32-14.336-32-32s14.336-32 32-32zM224 256h576c17.664 0 32 14.336 32 32s-14.336 32-32 32h-576c-17.664 0-32-14.336-32-32s14.336-32 32-32z"/>
<glyph unicode="b" glyph-name="icon_menu-square_alt2" data-tags="icon_menu-square_alt2" d="M960 896h-832c-35.328 0-64-28.672-64-64v-832c0-35.328 28.672-64 64-64h832c35.328 0 64 28.672 64 64v832c0 35.328-28.672 64-64 64zM960 0h-832v832h832v-832zM288 384h512c17.664 0 32 14.336 32 32s-14.336 32-32 32h-512c-17.664 0-32-14.336-32-32s14.336-32 32-32zM288 576h512c17.664 0 32 14.336 32 32s-14.336 32-32 32h-512c-17.664 0-32-14.336-32-32s14.336-32 32-32zM288 192h512c17.664 0 32 14.336 32 32s-14.336 32-32 32h-512c-17.664 0-32-14.336-32-32s14.336-32 32-32z"/>
<glyph unicode="c" glyph-name="icon_menu-circle_alt2" data-tags="icon_menu-circle_alt2" d="M544 896c-265.088 0-480-214.912-480-480s214.912-480 480-480 480 214.912 480 480-214.912 480-480 480zM544 0c-229.376 0-416 186.624-416 416s186.624 416 416 416 416-186.624 416-416-186.624-416-416-416zM800 448h-512c-17.664 0-32-14.336-32-32s14.336-32 32-32h512c17.664 0 32 14.336 32 32s-14.336 32-32 32zM800 640h-512c-17.664 0-32-14.336-32-32s14.336-32 32-32h512c17.664 0 32 14.336 32 32s-14.336 32-32 32zM800 256h-512c-17.664 0-32-14.336-32-32s14.336-32 32-32h512c17.664 0 32 14.336 32 32s-14.336 32-32 32z"/>
<glyph unicode="d" glyph-name="icon_ul" data-tags="icon_ul" d="M352 448h512c17.664 0 32 14.336 32 32s-14.336 32-32 32h-512c-17.664 0-32-14.336-32-32s14.336-32 32-32zM352 704h512c17.664 0 32 14.336 32 32s-14.336 32-32 32h-512c-17.664 0-32-14.336-32-32s14.336-32 32-32zM352 192h512c17.664 0 32 14.336 32 32s-14.336 32-32 32h-512c-17.664 0-32-14.336-32-32s14.336-32 32-32zM128 736c0-17.673 14.327-32 32-32s32 14.327 32 32c0 17.673-14.327 32-32 32s-32-14.327-32-32zM128 480c0-17.673 14.327-32 32-32s32 14.327 32 32c0 17.673-14.327 32-32 32s-32-14.327-32-32zM128 224c0-17.673 14.327-32 32-32s32 14.327 32 32c0 17.673-14.327 32-32 32s-32-14.327-32-32z"/>
<glyph unicode="e" glyph-name="icon_ol" data-tags="icon_ol" d="M864 512h-512c-17.664 0-32-14.336-32-32s14.336-32 32-32h512c17.664 0 32 14.336 32 32s-14.336 32-32 32zM864 768h-512c-17.664 0-32-14.336-32-32s14.336-32 32-32h512c17.664 0 32 14.336 32 32s-14.336 32-32 32zM864 256h-512c-17.664 0-32-14.336-32-32s14.336-32 32-32h512c17.664 0 32 14.336 32 32s-14.336 32-32 32zM222.72 657.088v157.824h-18.24l-34.496-18.432 4.16-16.256 27.456 14.784h0.448v-137.92zM171.968 430.464l-16.704-16.256v-13.12h100.736v17.728h-70.912v0.448l12.608 11.648c33.28 32.064 54.4 55.616 54.4 84.736 0 22.592-14.336 45.888-48.32 45.888-18.24 0-33.728-6.784-44.672-16.064l6.784-15.040c7.296 6.080 19.2 13.376 33.536 13.376 23.552 0 31.296-14.784 31.296-30.848-0.192-23.744-18.432-44.16-58.752-82.496zM198.208 162.304c-14.784 0-28.864 6.080-34.944 9.92l-5.824-16.512c7.744-5.12 23.296-10.688 41.024-10.688 37.888 0 57.536 22.080 57.536 47.36 0 22.080-15.808 36.672-35.2 40.576v0.448c19.456 7.040 29.12 20.864 29.12 37.184 0 19.2-14.080 37.632-45.184 37.632-17.024 0-33.024-6.080-41.28-12.16l5.568-15.552c6.784 4.864 18.944 10.432 31.552 10.432 19.648 0 27.712-11.2 27.712-23.808 0-18.688-19.648-26.688-35.2-26.688h-11.904v-16h11.904c20.672 0 40.576-9.472 40.768-31.552 0.32-13.12-8.192-30.592-35.648-30.592z"/>
<glyph unicode="f" glyph-name="icon_adjust-horiz" data-tags="icon_adjust-horiz" d="M864 768h-96c0 35.328-28.672 64-64 64h-64c-35.328 0-64-28.672-64-64h-416c-17.664 0-32-14.336-32-32s14.336-32 32-32h416c0-35.328 28.672-64 64-64h64c35.328 0 64 28.672 64 64h96c17.664 0 32 14.336 32 32s-14.336 32-32 32zM704 704h-64v64h64v-64zM864 512h-416c0 35.328-28.672 64-64 64h-64c-35.328 0-64-28.672-64-64h-96c-17.664 0-32-14.336-32-32s14.336-32 32-32h96c0-35.328 28.672-64 64-64h64c35.328 0 64 28.672 64 64h416c17.664 0 32 14.336 32 32s-14.336 32-32 32zM384 448h-64v64h64v-64zM864 256h-224c0 35.328-28.672 64-64 64h-64c-35.328 0-64-28.672-64-64h-288c-17.664 0-32-14.336-32-32s14.336-32 32-32h288c0-35.328 28.672-64 64-64h64c35.328 0 64 28.672 64 64h224c17.664 0 32 14.336 32 32s-14.336 32-32 32zM576 192h-64v64h64v-64z"/>
<glyph unicode="g" glyph-name="icon_adjust-vert" data-tags="icon_adjust-vert" d="M320 704v96c0 17.664-14.336 32-32 32s-32-14.336-32-32v-96c-35.328 0-64-28.672-64-64v-64c0-35.328 28.672-64 64-64v-416c0-17.664 14.336-32 32-32s32 14.336 32 32v416c35.328 0 64 28.672 64 64v64c0 35.328-28.672 64-64 64zM256 640h64v-64h-64v64zM576 384v416c0 17.664-14.336 32-32 32s-32-14.336-32-32v-416c-35.328 0-64-28.672-64-64v-64c0-35.328 28.672-64 64-64v-96c0-17.664 14.336-32 32-32s32 14.336 32 32v96c35.328 0 64 28.672 64 64v64c0 35.328-28.672 64-64 64zM512 320h64v-64h-64v64zM832 576v224c0 17.664-14.336 32-32 32s-32-14.336-32-32v-224c-35.328 0-64-28.672-64-64v-64c0-35.328 28.672-64 64-64v-288c0-17.664 14.336-32 32-32s32 14.336 32 32v288c35.328 0 64 28.672 64 64v64c0 35.328-28.672 64-64 64zM768 512h64v-64h-64v64z"/>
<glyph unicode="h" glyph-name="icon_document_alt" data-tags="icon_document_alt" d="M128-64h768c35.328 0 64 28.672 64 64v896c0 35.328-28.672 64-64 64h-768c-35.328 0-64-28.672-64-64v-896c0-35.328 28.672-64 64-64zM128 896h768v-896h-768v896zM736 768h-256c-17.664 0-32-14.336-32-32s14.336-32 32-32h256c17.664 0 32 14.336 32 32s-14.336 32-32 32zM736 576h-448c-17.664 0-32-14.336-32-32s14.336-32 32-32h448c17.664 0 32 14.336 32 32s-14.336 32-32 32zM736 384h-448c-17.664 0-32-14.336-32-32s14.336-32 32-32h448c17.664 0 32 14.336 32 32s-14.336 32-32 32zM736 192h-448c-17.664 0-32-14.336-32-32s14.336-32 32-32h448c17.664 0 32 14.336 32 32s-14.336 32-32 32z"/>
<glyph unicode="i" glyph-name="icon_documents_alt" data-tags="icon_documents_alt" d="M128 64h64v-64c0-35.328 28.672-64 64-64h640c35.328 0 64 28.672 64 64v768c0 35.328-28.672 64-64 64h-64v64c0 35.328-28.672 64-64 64h-640c-35.328 0-64-28.672-64-64v-768c0-35.328 28.672-64 64-64zM768 128h-640v768h640v-768zM896 768v-768h-640v64h512c35.328 0 64 28.672 64 64v640h64zM320 736c0-17.664 14.336-32 32-32h320c17.664 0 32 14.336 32 32s-14.336 32-32 32h-320c-17.664 0-32-14.336-32-32zM224 512h448c17.664 0 32 14.336 32 32s-14.336 32-32 32h-448c-17.664 0-32-14.336-32-32s14.336-32 32-32zM224 384h448c17.664 0 32 14.336 32 32s-14.336 32-32 32h-448c-17.664 0-32-14.336-32-32s14.336-32 32-32zM224 256h448c17.664 0 32 14.336 32 32s-14.336 32-32 32h-448c-17.664 0-32-14.336-32-32s14.336-32 32-32z"/>
<glyph unicode="j" glyph-name="icon_pencil" data-tags="icon_pencil" d="M963.904-3.904l-67.264 203.008-543.040 543.040-135.744-135.744 543.040-543.040zM127.36 696.896l135.744 135.744-67.2 67.2c-37.504 37.504-98.24 37.504-135.744 0-37.504-37.44-37.504-98.304 0-135.744l67.2-67.2z"/>
<glyph unicode="k" glyph-name="icon_pencil-edit_alt" data-tags="icon_pencil-edit_alt" d="M659.84 185.024l172.16-57.024-57.024 172.16-328.96 328.96-115.136-115.136zM263.104 581.76l115.136 115.136-84.736 84.736c-31.808 31.808-83.328 31.808-115.136 0s-31.808-83.328 0-115.136l84.736-84.736zM960 960h-896c-35.328 0-64-28.672-64-64v-896c0-35.328 28.672-64 64-64h896c35.328 0 64 28.672 64 64v896c0 35.328-28.672 64-64 64zM960 0h-896v896h896v-896z"/>
<glyph unicode="l" glyph-name="icon_pencil-edit" data-tags="icon_pencil-edit" d="M677.504 282.496l-57.024 172.16-328.96 328.96-115.136-115.136 328.96-328.96zM23.872 936.128c-31.808-31.808-31.808-83.328 0-115.136l84.736-84.736 115.136 115.136-84.736 84.736c-31.808 31.808-83.328 31.808-115.136 0zM960 768h-453.696l64-64h389.696v-704h-704v389.696l-64 64v-453.696c0-35.328 28.672-64 64-64h704c35.328 0 64 28.672 64 64v704c0 35.328-28.672 64-64 64z"/>
<glyph unicode="m" glyph-name="icon_folder-alt" data-tags="icon_folder-alt" d="M960 896h-289.024c-35.328 0-75.968-17.984-94.976-64 0 0-8.32-58.688-64-64h-448c-35.328 0-64-27.648-64-62.976v-577.024c0-35.328 28.672-64 64-64h896c35.328 0 64 28.672 64 64v704c0 35.328-28.672 64-64 64zM960 705.024v-577.024h-896v576h448c2.048 0 4.032 0.128 6.080 0.32 60.032 5.696 97.152 47.68 114.304 90.88 16.64 41.792 45.632 36.8 45.632 36.8h281.984v-126.976z"/>
<glyph unicode="n" glyph-name="icon_folder-open_alt" data-tags="icon_folder-open_alt" d="M1024 705.024v126.976c0 35.328-28.672 64-64 64h-320c-35.328 0-64-28.672-64-64 0 0-8.32-58.688-64-64h-448c-35.328 0-64-27.648-64-62.976v-65.024h1024v65.024zM64 0h896c35.328 0 64 28.672 64 64v512h-1024v-512c0-35.328 28.672-64 64-64zM64 512h896v-448h-896v448z"/>
<glyph unicode="o" glyph-name="icon_folder-add_alt" data-tags="icon_folder-add_alt" d="M896 832h-225.024c-35.328 0-75.968-17.984-94.976-64 0 0-8.32-58.688-64-64h-448c-35.328 0-64-27.648-64-62.976v-577.024c0-35.328 28.672-64 64-64h832c35.328 0 64 28.672 64 64v704c0 35.328-28.672 64-64 64zM896 641.024v-577.024h-832v576h448c2.048 0 4.032 0.128 6.080 0.32 60.032 5.696 97.152 47.744 114.304 90.944 16.64 41.728 45.632 36.736 45.632 36.736h217.984v-126.976zM640 384h-128v128c0 17.664-14.336 32-32 32s-32-14.336-32-32v-128h-128c-17.664 0-32-14.336-32-32s14.336-32 32-32h128v-128c0-17.664 14.336-32 32-32s32 14.336 32 32v128h128c17.664 0 32 14.336 32 32s-14.336 32-32 32z"/>
<glyph unicode="p" glyph-name="icon_info_alt" data-tags="icon_info_alt" d="M512 960c-282.752 0-512-229.248-512-512s229.248-512 512-512 512 229.248 512 512-229.248 512-512 512zM512 0c-247.040 0-448 200.96-448 448s200.96 448 448 448 448-200.96 448-448-200.96-448-448-448zM512 576c-35.328 0-64-28.672-64-64v-320c0-35.328 28.672-64 64-64s64 28.672 64 64v320c0 35.328-28.672 64-64 64zM448 702.976c0-35.346 28.654-64 64-64s64 28.654 64 64c0 35.346-28.654 64-64 64s-64-28.654-64-64z"/>
<glyph unicode="q" glyph-name="icon_error-oct_alt" data-tags="icon_error-oct_alt" d="M742.848 941.248c-12.032 12.032-28.288 18.752-45.312 18.752h-371.072c-16.96 0-33.28-6.72-45.248-18.752l-262.4-262.464c-12.096-11.968-18.816-28.224-18.816-45.248v-371.136c0-16.96 6.72-33.28 18.752-45.248l262.4-262.464c12.032-11.968 28.288-18.688 45.312-18.688h371.136c16.96 0 33.28 6.72 45.248 18.752l262.4 262.464c12.032 11.968 18.752 28.224 18.752 45.248v371.072c0 16.96-6.72 33.28-18.752 45.248l-262.4 262.464zM960 262.464l-262.464-262.464h-371.072l-262.464 262.464v371.072l262.464 262.464h371.136l262.4-262.464v-371.072zM512 768c-35.328 0-64-28.672-64-64v-320c0-35.328 28.672-64 64-64s64 28.672 64 64v320c0 35.328-28.672 64-64 64zM448 192c0-35.346 28.654-64 64-64s64 28.654 64 64c0 35.346-28.654 64-64 64s-64-28.654-64-64z"/>
<glyph unicode="r" glyph-name="icon_error-circle_alt" data-tags="icon_error-circle_alt" d="M512 960c-282.752 0-512-229.248-512-512s229.248-512 512-512 512 229.248 512 512-229.248 512-512 512zM512 0c-247.040 0-448 200.96-448 448s200.96 448 448 448 448-200.96 448-448-200.96-448-448-448zM512 768c-35.328 0-64-28.672-64-64v-320c0-35.328 28.672-64 64-64s64 28.672 64 64v320c0 35.328-28.672 64-64 64zM448 193.024c0-35.346 28.654-64 64-64s64 28.654 64 64c0 35.346-28.654 64-64 64s-64-28.654-64-64z"/>
<glyph unicode="s" glyph-name="icon_error-triangle_alt" data-tags="icon_error-triangle_alt" d="M1012.48 94.144l-444.032 832c-11.072 20.8-32.768 33.856-56.384 33.856h-0.064c-23.616 0-45.248-12.992-56.384-33.792l-446.016-832c-10.624-19.84-10.048-43.776 1.472-63.104 11.584-19.264 32.448-31.104 54.912-31.104h889.984c22.464 0 43.328 11.776 54.912 31.104 11.584 19.264 12.16 43.2 1.6 63.040zM65.984 64l446.016 832 444.032-832h-890.048zM448 574.976v-192c0-35.328 28.672-64 64-64s64 28.672 64 64v192c0 35.328-28.672 64-64 64s-64-28.608-64-64zM448 192c0-35.346 28.654-64 64-64s64 28.654 64 64c0 35.346-28.654 64-64 64s-64-28.654-64-64z"/>
<glyph unicode="t" glyph-name="icon_question_alt2" data-tags="icon_question_alt2" d="M512 960c-282.752 0-512-229.248-512-512s229.248-512 512-512 512 229.248 512 512-229.248 512-512 512zM512 0c-247.040 0-448 200.96-448 448s200.96 448 448 448 448-200.96 448-448-200.96-448-448-448zM440.768 127.104c0 0 0 0 0 0 0-36.407 29.513-65.92 65.92-65.92s65.92 29.513 65.92 65.92c0 0 0 0 0 0s0 0 0 0c0 36.407-29.513 65.92-65.92 65.92s-65.92-29.513-65.92-65.92c0 0 0 0 0 0zM506.688 832c-124.096 0-256-90.176-256-257.344 0-35.328 28.608-64 64-64s64 28.672 64 64c0 88.896 66.368 129.344 128 129.344 47.808 0 128-14.016 128-108.032 0-33.344-8.768-72.256-73.536-107.968-44.032-24.128-118.464-86.784-118.464-168 0-35.328 28.608-64 64-64s64 28.672 64 64c0 11.904 25.344 41.152 52.16 55.936 92.736 51.072 139.84 125.12 139.84 220.032 0 163.072-128.576 236.032-256 236.032z"/>
<glyph unicode="u" glyph-name="icon_question" data-tags="icon_question" d="M440.768 127.104c0 0 0 0 0 0 0-36.407 29.513-65.92 65.92-65.92s65.92 29.513 65.92 65.92c0 0 0 0 0 0s0 0 0 0c0 36.407-29.513 65.92-65.92 65.92s-65.92-29.513-65.92-65.92c0 0 0 0 0 0zM622.848 375.936c92.736 51.072 139.84 125.12 139.84 220.032 0 163.008-128.576 236.032-256 236.032-124.096 0-256-90.176-256-257.344 0-35.328 28.608-64 64-64s64 28.672 64 64c0 88.896 66.368 129.344 128 129.344 47.808 0 128-14.016 128-108.032 0-33.344-8.768-72.256-73.536-107.968-44.032-24.128-118.464-86.784-118.464-168 0-35.328 28.608-64 64-64s64 28.672 64 64c0 11.904 25.28 41.152 52.16 55.936z"/>
<glyph unicode="v" glyph-name="icon_comment_alt" data-tags="icon_comment_alt" d="M60.736 19.776c5.248-11.264 16.576-18.432 28.992-18.432 91.84 0 169.536 22.336 257.792 74.368 42.816-6.784 127.36-15.168 164.48-15.168 280.192 0 508.096 187.072 508.096 417.088s-227.904 417.024-508.096 417.024-508.096-187.008-508.096-417.024c0-108.416 52.288-213.184 144.32-290.816-20.864-47.36-48.704-92.032-83.008-132.928-7.936-9.6-9.728-22.912-4.48-34.112zM67.904 477.632c0 194.688 199.232 353.088 444.096 353.088s444.096-158.4 444.096-353.088-199.232-353.088-444.096-353.088c-36.736 0-132.352 9.856-164.672 16.128-7.808 1.408-15.936-0.064-22.72-4.096-59.648-36.48-111.68-57.344-167.36-66.176 24 36.352 43.968 74.752 59.52 114.752 5.184 13.376 0.96 28.48-10.496 37.12-89.28 67.584-138.368 158.336-138.368 255.36z"/>
<glyph unicode="w" glyph-name="icon_chat_alt" data-tags="icon_chat_alt" d="M893.12 582.72c5.632-25.344 8.896-51.392 8.896-78.144 0-206.592-175.36-378.816-406.272-415.808 48.832-19.712 103.552-31.232 161.856-31.232 54.976 0 106.88 10.112 153.728 27.712 59.328-20.224 124.096-25.472 177.664-25.472-27.84 33.408-47.168 66.176-60.992 94.976 59.392 52.992 96 123.2 96 200.512 0 91.392-51.008 172.864-130.88 227.456zM47.104 146.624c5.568-10.56 16.512-17.152 28.352-17.152 0.512 0 1.088 0 1.536 0.064 33.856 1.6 101.184 24.064 172.48 69.312 38.144-6.72 123.584-19.392 153.408-19.392 225.088 0 401.344 156.736 401.344 356.864 0 196.8-179.968 356.864-401.344 356.864s-401.216-160-401.216-356.8c0-91.584 40.32-180.096 111.296-246.336-15.936-38.784-37.056-75.456-62.848-109.056-7.616-9.856-8.768-23.296-3.008-34.368zM65.664 536.384c0 161.472 151.296 292.864 337.344 292.864s337.344-131.392 337.344-292.864c0-166.912-145.024-292.864-337.344-292.864-25.28 0-125.888 14.656-153.536 20.48-8.448 1.664-17.216 0.128-24.256-4.672-27.456-18.176-53.312-31.936-75.84-42.048 12.224 22.976 22.784 46.784 31.616 71.36 4.544 12.736 0.64 26.944-9.728 35.52-68.096 56-105.6 131.392-105.6 212.224z"/>
<glyph unicode="x" glyph-name="icon_vol-mute_alt" data-tags="icon_vol-mute_alt" d="M64 183.872h146.624c11.584-11.52 278.464-236.16 278.464-236.16 13.888-8.448 25.984-11.712 36.544-11.712 1.6 0 3.2 0.064 4.736 0.192 23.68 2.24 40.576 22.080 45.632 43.008v937.536c-4.992 20.992-21.952 40.832-45.632 43.072-1.536 0.128-3.072 0.192-4.736 0.192-10.56 0-22.656-3.264-36.544-11.648 0 0-266.88-232.832-278.464-244.352h-146.624c-35.328 0-64-28.672-64-64v-392.128c0-35.392 28.672-64 64-64zM64 256v384h146.624c16.384 0 32.768 6.848 44.608 18.112 11.648 11.072 156.288 137.6 256.768 225.28v-871.36c-99.84 84.096-244.48 206.272-256.256 217.152-11.968 11.968-28.224 18.624-45.184 18.624h-146.56v8.192zM1012.544 613.696c-15.232 15.232-40 15.232-55.232 0l-110.464-110.464-110.464 110.464c-15.232 15.232-40 15.232-55.232 0s-15.232-40 0-55.232l110.464-110.464-110.464-110.464c-15.232-15.232-15.232-40 0-55.232s40-15.232 55.232 0l110.464 110.464 110.464-110.464c15.232-15.232 40-15.232 55.232 0s15.232 40 0 55.232l-110.464 110.464 110.464 110.464c15.296 15.232 15.296 40 0 55.232z"/>
<glyph unicode="y" glyph-name="icon_volume-low_alt" data-tags="icon_volume-low_alt" d="M653.632 960c-10.56 0-22.656-3.264-36.544-11.648 0 0-266.88-232.832-278.464-244.352h-146.624c-35.328 0-64-28.672-64-64v-392.128c0-35.328 28.672-64 64-64h146.624c11.584-11.52 278.464-236.16 278.464-236.16 13.888-8.448 25.984-11.712 36.544-11.712 1.6 0 3.2 0.064 4.736 0.192 23.68 2.24 40.576 22.080 45.632 43.008v937.536c-4.992 20.992-21.952 40.832-45.632 43.008-1.536 0.192-3.072 0.256-4.736 0.256zM640 12.032c-99.84 84.096-244.48 206.272-256.256 217.152-11.968 11.968-28.224 18.624-45.184 18.624h-146.56v392.192h146.624c16.384 0 32.768 6.848 44.608 18.112 11.648 11.072 156.288 137.6 256.768 225.28v-871.36zM802.624 336.192c-15.808-8-22.144-27.2-14.208-43.008 5.632-11.136 16.896-17.6 28.544-17.6 4.864 0 9.728 1.088 14.4 3.392 64.704 32.64 104.896 97.344 104.896 169.024s-40.192 136.384-104.896 169.024c-15.808 8-35.008 1.6-42.944-14.208s-1.6-35.008 14.208-43.008c42.944-21.632 69.632-64.448 69.632-111.808s-26.688-90.176-69.632-111.808z"/>
<glyph unicode="z" glyph-name="icon_volume-high_alt" data-tags="icon_volume-high_alt" d="M64 183.872h146.624c11.584-11.52 278.464-236.16 278.464-236.16 13.888-8.448 25.984-11.712 36.544-11.712 1.6 0 3.2 0.064 4.736 0.192 23.68 2.24 40.576 22.080 45.632 43.008v937.536c-4.992 20.992-21.952 40.832-45.632 43.072-1.536 0.128-3.072 0.192-4.736 0.192-10.56 0-22.656-3.264-36.544-11.648 0 0-266.88-232.832-278.464-244.352h-146.624c-35.328 0-64-28.672-64-64v-392.128c0-35.392 28.672-64 64-64zM64 256v384h146.624c16.384 0 32.768 6.848 44.608 18.112 11.648 11.072 156.288 137.6 256.768 225.28v-871.36c-99.84 84.096-244.48 206.272-256.256 217.152-11.968 11.968-28.224 18.624-45.184 18.624h-146.56v8.192zM674.624 336.192c-15.808-8-22.144-27.2-14.208-43.008 5.632-11.136 16.896-17.6 28.544-17.6 4.864 0 9.728 1.088 14.4 3.392 64.704 32.64 104.896 97.344 104.896 169.024s-40.192 136.384-104.896 169.024c-15.808 8-35.008 1.6-42.944-14.208s-1.6-35.008 14.208-43.008c42.944-21.632 69.632-64.448 69.632-111.808s-26.688-90.176-69.632-111.808zM630.592 80.704c3.008-15.296 16.384-25.856 31.36-25.856 2.048 0 4.096 0.192 6.208 0.576 187.648 36.608 323.84 201.728 323.84 392.576s-136.192 355.968-323.904 392.576c-17.024 3.456-34.176-7.936-37.504-25.28-3.392-17.344 7.936-34.176 25.28-37.568 157.696-30.72 272.128-169.408 272.128-329.728s-114.432-299.008-272.128-329.728c-17.344-3.392-28.672-20.224-25.28-37.568z"/>
<glyph unicode="{" glyph-name="icon_quotations" data-tags="icon_quotations" d="M255.936 540.224c0-54.080 42.24-97.92 94.272-97.92 16.704 0 32.128 4.864 45.76 12.8-4.672-52.352-31.040-128.704-127.68-206.528-13.504-10.944-16-31.168-5.504-45.184 6.144-8.192 15.296-12.48 24.512-12.48 6.656 0 13.312 2.176 19.008 6.784 118.592 95.68 148.224 193.984 152.192 259.648 6.784 83.968-18.688 128.128-41.984 151.168-2.112 2.24-4.096 4.672-6.464 6.656-5.568 4.736-10.56 8.064-14.912 10.56-0.192 0.128-0.32 0.32-0.512 0.384-0.32 0.192-0.64 0.256-0.96 0.384-6.336 3.52-10.88 5.184-10.88 5.184l0.32-0.768c-10.304 4.224-21.12 7.232-32.896 7.232-52.096 0-94.272-43.84-94.272-97.92zM566.208 540.224c0-54.080 42.176-97.92 94.272-97.92 16.704 0 32.128 4.864 45.76 12.8-4.672-52.352-31.040-128.704-127.68-206.528-13.568-10.944-16-31.168-5.504-45.184 6.144-8.192 15.296-12.48 24.512-12.48 6.656 0 13.312 2.176 19.008 6.784 118.592 95.68 148.224 193.984 152.192 259.648 6.784 83.968-18.752 128.128-41.984 151.168-2.176 2.24-4.16 4.672-6.528 6.656-5.568 4.736-10.56 8.064-14.912 10.56-0.192 0.128-0.32 0.256-0.512 0.384-0.32 0.192-0.64 0.256-0.96 0.384-6.336 3.456-10.88 5.184-10.88 5.184l0.32-0.768c-10.304 4.224-21.184 7.232-32.896 7.232-52.032 0-94.208-43.84-94.208-97.92z"/>
<glyph unicode="|" glyph-name="icon_quotations_alt2" data-tags="icon_quotations_alt2" d="M512 960c-282.752 0-512-229.248-512-512s229.248-512 512-512 512 229.248 512 512-229.248 512-512 512zM512 0c-247.040 0-448 200.96-448 448s200.96 448 448 448 448-200.96 448-448-200.96-448-448-448zM410.048 615.168c-5.568 4.736-10.56 8.064-14.912 10.56-0.192 0.128-0.32 0.32-0.512 0.384-0.32 0.192-0.64 0.256-0.96 0.384-6.336 3.52-10.88 5.184-10.88 5.184l0.32-0.768c-10.304 4.224-21.12 7.232-32.896 7.232-52.096 0-94.272-43.84-94.272-97.92s42.24-97.92 94.272-97.92c16.704 0 32.128 4.864 45.76 12.8-4.672-52.352-31.040-128.704-127.68-206.528-13.504-10.944-16-31.168-5.504-45.184 6.144-8.192 15.296-12.48 24.512-12.48 6.656 0 13.312 2.176 19.008 6.784 118.592 95.68 148.224 193.984 152.192 259.648 6.784 83.968-18.688 128.128-41.984 151.168-2.112 2.24-4.096 4.672-6.464 6.656zM720.32 615.168c-5.568 4.736-10.56 8.064-14.912 10.56-0.192 0.128-0.32 0.256-0.512 0.384-0.32 0.192-0.64 0.256-0.96 0.384-6.336 3.456-10.88 5.184-10.88 5.184l0.32-0.768c-10.304 4.224-21.184 7.232-32.896 7.232-52.096 0-94.272-43.84-94.272-97.92s42.176-97.92 94.272-97.92c16.704 0 32.128 4.864 45.76 12.8-4.672-52.352-31.040-128.704-127.68-206.528-13.568-10.944-16-31.168-5.504-45.184 6.144-8.192 15.296-12.48 24.512-12.48 6.656 0 13.312 2.176 19.008 6.784 118.592 95.68 148.224 193.984 152.192 259.648 6.784 83.968-18.752 128.128-41.984 151.168-2.112 2.24-4.096 4.672-6.464 6.656z"/>
<glyph unicode="}" glyph-name="icon_clock_alt" data-tags="icon_clock_alt" d="M736 448h-160v224.448c0 17.664-14.336 32-32 32s-32-14.336-32-32v-256.256c0 0 0-0.064 0-0.064v-0.129c0-17.664 14.336-32 32-32h192c17.664 0 32 14.336 32 32s-14.336 32-32 32zM544 896c-265.089 0-480-214.911-480-480s214.914-480 480-480 480 214.914 480 480-214.914 480-480 480zM544 0c-229.376 0-416 186.624-416 416s186.624 416 416 416 416-186.624 416-416-186.624-416-416-416z"/>
<glyph unicode="~" glyph-name="icon_lock_alt" data-tags="icon_lock_alt" d="M512 960c-176.704 0-320-145.472-320-324.928v-59.072h-64c-35.328 0-64-28.672-64-64v-512c0-35.328 28.672-64 64-64h768c35.328 0 64 28.672 64 64v512c0 35.328-28.672 64-64 64h-64v59.072c0 179.456-143.296 324.928-320 324.928zM256 635.072c0 143.872 114.816 260.928 256 260.928s256-117.056 256-260.928v-59.072h-512v59.072zM896 0h-768v512h768v-512zM640 256c0 70.72-57.28 128-128 128s-128-57.28-128-128 57.28-128 128-128 128 57.28 128 128zM512 192c-35.264 0-64 28.736-64 64s28.736 64 64 64 64-28.736 64-64-28.736-64-64-64z"/>
<glyph unicode="" glyph-name="icon_lock-open_alt" data-tags="icon_lock-open_alt" d="M960 0v512c0 35.328-28.672 64-64 64h-640.32l0.32 27.136c0 172.416 106.496 292.864 259.072 292.864 111.68 0 211.2-64.192 259.776-167.552 7.488-16 26.496-22.848 42.56-15.296 16 7.488 22.848 26.56 15.296 42.56-59.2 125.952-180.864 204.288-317.632 204.288-187.2 0-323.072-150.080-323.072-356.48l-0.32-27.52h-63.68c-35.328 0-64-28.672-64-64v-512c0-35.328 28.672-64 64-64h768c35.328 0 64 28.672 64 64zM128 512h768v-512h-768v512zM512 384c-70.72 0-128-57.28-128-128s57.28-128 128-128 128 57.28 128 128-57.28 128-128 128zM512 192c-35.264 0-64 28.736-64 64s28.736 64 64 64 64-28.736 64-64-28.736-64-64-64z"/>
<glyph unicode="" glyph-name="icon_key_alt" data-tags="icon_key_alt" d="M352 160c0 19.008-4.096 37.376-12.16 54.464-20.992 44.672-66.496 73.536-115.84 73.536-70.592 0-128-57.408-128-128 0-12.608 2.368-24.512 5.76-36.032 21.44-35.328 50.88-64.768 86.208-86.208 11.52-3.392 23.424-5.76 36.032-5.76 70.592 0 128 57.408 128 128zM224 224c24.704 0 47.424-14.464 57.984-36.8 3.968-8.512 6.016-17.664 6.016-27.2 0-35.264-28.736-64-64-64s-64 28.736-64 64 28.736 64 64 64zM992 960h-138.496c-7.552 0-14.848-2.688-20.672-7.552l-453.12-382.656c-20.864 4.16-40.512 6.208-59.712 6.208-176.448 0-320-143.552-320-320s143.552-320 320-320 320 143.552 320 320c0 33.664-5.376 66.944-16 99.2l97.408 63.296c9.088 5.888 14.592 16 14.592 26.816v116.288l121.664 6.4c15.872 0.832 28.672 13.184 30.144 28.992l11.648 123.264 106.304 50.816c11.2 5.376 18.24 16.64 18.24 28.928v128c0 17.664-14.336 32-32 32zM960 820.16l-104.448-49.92c-10.112-4.864-17.024-14.656-18.048-25.856l-10.752-113.856-124.416-6.528c-17.024-0.96-30.336-14.976-30.336-32v-129.28l-104.448-67.904c-12.992-8.448-18.112-25.024-12.032-39.296 13.632-32.064 20.48-65.536 20.48-99.52 0-141.184-114.816-256-256-256-48.448 0-93.312 14.272-132.032 37.76-35.328 21.44-64.768 50.88-86.208 86.208-23.488 38.72-37.76 83.584-37.76 132.032 0 141.184 114.816 256 256 256 18.88 0 38.72-2.624 60.672-7.936 9.92-2.432 20.416 0 28.224 6.656l456.32 385.28h94.784v-75.84z"/>
<glyph unicode="" glyph-name="icon_cloud_alt" data-tags="icon_cloud_alt" d="M832 512c-2.24 0-4.352-0.576-6.528-0.64 4.288 20.864 6.528 42.496 6.528 64.64 0 176.704-143.296 320-320 320s-320-143.296-320-320c0-1.088 0.32-2.112 0.32-3.2-108.544-15.488-192.32-107.968-192.32-220.8 0-112.768 83.584-205.12 192-220.8v-3.2h640c106.048 0 192 85.952 192 192s-85.952 192-192 192zM832 192h-619.904c-3.52 1.152-7.168 2.048-10.944 2.56-78.208 11.264-137.152 78.976-137.152 157.44 0 78.592 59.072 146.24 137.344 157.44 31.808 4.544 55.296 31.936 54.976 64 0 1.92-0.128 3.84-0.32 5.696 1.728 139.776 115.904 252.864 256 252.864 141.184 0 256-114.816 256-256 0-17.408-1.792-34.816-5.248-51.776-3.968-19.2 1.152-39.168 13.824-54.144 12.16-14.4 30.080-22.656 48.896-22.656 0.768 0 1.472 0 2.24 0.064 1.408-0.064 4.416 0.192 6.912 0.512 69.376-1.408 125.376-58.304 125.376-128 0-70.592-57.408-128-128-128z"/>
<glyph unicode="" glyph-name="icon_cloud-upload_alt" data-tags="icon_cloud-upload_alt" d="M833.664 512.064c-2.752 0-5.44 0-8.064-0.064 4.224 21.056 6.4 42.56 6.4 64 0 176.448-143.552 320-320 320-176.32 0-320-142.144-320.192-316.736 0-0.064 0.512-6.464 0.512-6.464v0c-109.632-15.68-192.32-110.592-192.32-220.8 0-111.744 80.512-207.872 192-224h160c17.664 0 32 14.336 32 32s-14.336 32-32 32l-155.328-0.32c-74.368 10.944-132.672 81.408-132.672 160.32 0 78.592 59.008 146.24 137.344 157.44l27.52 3.968c15.744 2.24 27.456 15.744 27.456 31.68l-0.512 34.048c0.192 139.456 115.072 252.864 256.192 252.864 141.184 0 256-114.816 256-256 0-17.344-1.728-34.816-5.248-51.776l-8.448-40.704c-2.112-10.176 0.896-20.672 7.936-28.288 7.040-7.552 17.152-11.456 27.648-9.856 0.704 0.064 20.736 2.688 43.776 2.688 69.696 0 126.336-57.408 126.336-128.064 0-70.592-57.408-128-128-128h-224c-89.6 0-95.68 53.696-96 64v212.352l75.712-75.648c12.48-12.48 32.768-12.48 45.248 0s12.48 32.768 0 45.248l-128.768 128.704c-6.272 6.272-14.528 9.344-22.784 9.344-0.512 0-0.896 0.256-1.408 0.256-9.216 0-17.344-3.968-23.168-10.176l-128.896-128.768c-12.48-12.48-12.48-32.768 0-45.248s32.768-12.48 45.248 0l74.816 74.752v-210.816c0-44.224 33.408-128 160-128h224c105.856 0 192 86.144 192 192s-85.376 192.064-190.336 192.064z"/>
<glyph unicode="" glyph-name="icon_cloud-download_alt" data-tags="icon_cloud-download_alt" d="M837.312 512c59.776 137.28 22.912 224.576-7.104 266.624-45.568 63.808-128.576 98.816-201.472 84.8-126.72-24.192-180.736-110.080-180.736-287.424v-148.096l-74.112 74.112c-12.48 12.48-32.768 12.48-45.248 0s-12.48-32.768 0-45.248l128.768-128.704c6.464-6.464 14.976-9.408 23.424-9.216 8.448-0.192 16.96 2.752 23.424 9.216l129.408 129.344c12.48 12.48 12.48 32.768 0 45.248s-32.768 12.48-45.248 0l-76.416-76.352v149.696c0 184.576 63.552 212.096 128.64 224.576 41.792 7.68 102.272-9.856 137.408-59.136 43.008-60.096 34.752-149.248-23.232-250.88-6.144-10.816-5.504-24.192 1.664-34.304s19.776-15.232 31.744-13.056c7.744 1.344 30.848 4.864 45.44 4.864 69.696 0 126.336-57.408 126.336-128.064 0-70.592-57.408-128-128-128l-635.328-0.384c-74.368 11.008-132.672 81.472-132.672 160.384 0 78.592 59.008 146.24 137.344 157.44l27.52 3.968c15.744 2.24 27.456 15.744 27.456 31.68l-0.512 34.048c0.192 114.624 70.848 208.832 168.192 224 17.408 2.752 29.376 19.072 26.688 36.544-2.752 17.472-18.688 29.312-36.608 26.688-128.64-20.032-222.080-140.8-222.272-287.104 0-0.064 0.512-6.464 0.512-6.464v0c-109.632-15.68-192.32-110.592-192.32-220.8 0-111.744 80.512-207.872 192-224h640c105.856 0 192 86.144 192 192 0 104.704-83.456 190.080-186.688 192z"/>
<glyph unicode="" glyph-name="icon_image" data-tags="icon_image" d="M551.296 649.984c0-49.167 39.857-89.024 89.024-89.024s89.024 39.857 89.024 89.024c0 49.167-39.857 89.024-89.024 89.024s-89.024-39.857-89.024-89.024zM832 128h64v384l-256-192-320 256-192-192v-256h64zM960 896h-896c-35.328 0-64-28.672-64-64v-768c0-35.328 28.672-64 64-64h896c35.328 0 64 28.672 64 64v768c0 35.328-28.672 64-64 64zM960 64h-896v768h896v-768z"/>
<glyph unicode="" glyph-name="icon_images" data-tags="icon_images" d="M960 768h-64v128c0 35.328-28.672 64-64 64h-768c-35.328 0-64-28.672-64-64v-704c0-35.328 28.672-64 64-64h64v-128c0-35.328 28.672-64 64-64h768c35.328 0 64 28.672 64 64v704c0 35.328-28.672 64-64 64zM64 192v704h768v-704h-768zM960 0h-768v128h64v-64h640v640h64v-704zM473.28 697.984c0-49.167 39.857-89.024 89.024-89.024s89.024 39.857 89.024 89.024c0 49.167-39.857 89.024-89.024 89.024s-89.024-39.857-89.024-89.024zM320 640l-192-128v-256h640v320l-256-128z"/>
<glyph unicode="" glyph-name="icon_lightbulb_alt" data-tags="icon_lightbulb_alt" d="M512 960c-211.712 0-384-172.288-384-384 0-123.776 60.16-240.64 161.024-312.64 1.536-1.088 3.136-2.112 4.736-3.072 23.424-13.76 25.728-58.112 25.216-66.24-0.064-1.344-0.128-2.688-0.128-3.968v-126.080c0-24.064 13.44-46.016 34.88-56.96l129.152-65.984c9.152-4.672 19.136-7.040 29.12-7.040 9.92 0 19.776 2.304 28.864 6.848l130.688 65.984c21.568 10.88 35.136 32.96 35.136 57.152v125.312c0 63.168 38.592 84.032 38.976 84.224 5.12 2.368 9.856 5.44 14.144 9.088 86.528 73.216 136.192 180.096 136.192 293.376 0 211.712-172.288 384-384 384zM382.848 190.016c0 0 0 1.28 0.064 1.984h259.968c0-0.96-0.256-1.664-0.256-2.688 0-25.152 0-45.056 0-61.312h-259.776v62.016zM512-1.984l-129.088 65.984h259.776l-130.688-65.984zM718.464 331.52c0 0-42.88-20.16-64.128-75.52h-281.728c-7.936 22.144-21.696 44.928-46.4 59.456-81.216 57.984-134.208 153.088-134.208 260.544 0 176.704 143.296 320 320 320s320-143.296 320-320c0-98.048-44.096-185.792-113.536-244.48zM544 832c-17.664 0-32-14.336-32-32s14.336-32 32-32c72 0 160-65.472 160-163.008 0-17.664 14.336-32 32-32s32 14.336 32 32c0 145.984-113.984 227.008-224 227.008z"/>
<glyph unicode="" glyph-name="icon_gift_alt" data-tags="icon_gift_alt" d="M960 704h-896c-35.328 0-64-28.672-64-64v-192h64v-448c0-35.328 28.672-64 64-64h768c35.328 0 64 28.672 64 64v448h64v192c0 35.328-28.672 64-64 64zM64 640h384v-128h-384v128zM128 0v448h320v-448h-320zM896 0h-318.656v448h318.656v-448zM960 512h-382.656v128h382.656v-128zM512 768c0 0.128-0.064 0.384-0.064 0.512h0.192c-0.064-0.128-0.128-0.384-0.128-0.512 0 0 167.616 0 256 0s128 43.008 128 96-39.616 96-128 96c-82.752 0-147.904-37.248-192-80.448-19.328 11.456-41.664 18.432-65.856 18.432-23.168 0-44.608-6.528-63.424-17.152-44.032 42.688-108.8 79.168-190.72 79.168-88.384 0-128-43.008-128-96s39.616-96 128-96c88.384 0 256 0 256 0zM832 864c0-26.432-34.816-32-64-32h-145.344c-0.512 0.896-0.96 1.856-1.472 2.688 32.512 31.616 81.792 61.312 146.816 61.312 29.184 0 64-5.568 64-32zM192 864c0 26.432 34.816 32 64 32 63.616 0 111.872-28.48 144.384-59.008-1.024-1.6-1.792-3.328-2.752-4.992h-141.632c-29.184 0-64 5.568-64 32z"/>
<glyph unicode="" glyph-name="icon_house_alt" data-tags="icon_house_alt" d="M51.968 454.976l76.032 60.8v-451.776c0-35.328 28.672-64 64-64h192c35.328 0 64 28.672 64 64v256h128v-256c0-35.328 28.672-64 64-64h192c35.328 0 64 28.672 64 64v451.776l76.032-60.8c5.888-4.672 12.928-6.976 19.968-6.976 9.408 0 18.688 4.096 25.024 12.032 11.008 13.824 8.768 33.92-4.992 44.992l-480 384c-11.712 9.344-28.288 9.344-40 0l-172.032-137.6v80.576c0 35.328-28.672 64-64 64s-64-28.672-64-64v-182.976l-179.968-144c-13.76-11.072-16-31.168-4.992-44.992s31.104-16.064 44.928-5.056zM512 823.040l320-256v-503.040h-192v320h-256v-320h-192v502.976l320 256.064z"/>
<glyph unicode="" glyph-name="icon_genius" data-tags="icon_genius" d="M81.408 171.008c15.36-23.872 47.616-52.288 114.176-52.288 41.856 0 95.424 12.224 155.072 33.536 25.792-113.664 73.216-216.256 161.344-216.256 89.6 0 137.216 106.112 162.688 222.144 59.776-20.224 113.536-31.872 155.584-31.872 70.4 0 103.424 29.952 118.784 55.040 49.664 81.408-27.84 184.768-121.408 270.208 17.28 16.64 33.536 33.28 47.808 49.472 80.896 92.096 103.488 167.424 67.136 224-15.36 23.872-47.616 52.288-114.176 52.288v0c-41.856 0-95.424-12.224-155.072-33.536-25.792 113.664-73.216 216.256-161.344 216.256-89.6 0-137.216-106.112-162.688-222.144-59.776 20.288-113.536 31.872-155.584 31.872v0c-70.4 0-103.488-29.952-118.784-55.040-49.664-81.408 27.84-184.768 121.408-270.208-17.28-16.704-33.536-33.28-47.808-49.472-80.896-92.096-103.488-167.488-67.136-224zM512 0c-41.408 0-78.144 69.184-101.568 176 33.664 14.528 68.48 31.488 104.128 50.88 34.176-17.536 67.584-32.832 99.968-46.144-23.296-109.504-60.48-180.736-102.528-180.736zM384 448c0 23.488 0.704 46.4 1.664 68.928 18.432 13.056 37.312 25.984 57.088 38.72 22.72 14.592 45.184 28.032 67.456 40.832 22.592-12.288 45.376-25.152 68.416-39.168 20.608-12.608 40.384-25.472 59.584-38.4 1.088-23.168 1.792-46.72 1.792-70.912 0-23.488-0.704-46.4-1.664-68.928-18.432-13.056-37.312-25.984-57.088-38.72-22.72-14.592-45.184-28.032-67.456-40.832-22.592 12.288-45.376 25.152-68.416 39.168-20.608 12.608-40.384 25.472-59.584 38.4-1.088 23.168-1.792 46.72-1.792 70.912zM320.32 423.936c-9.408 7.168-18.624 14.336-27.456 21.44 8.832 7.488 17.984 14.976 27.328 22.464-0.128-8.576-0.192-15.808-0.192-19.84 0-4.672 0.128-13.504 0.32-24.064zM391.488 598.144c1.856 18.176 4.032 35.776 6.528 52.8 14.592-6.208 29.504-13.056 44.736-20.224-11.52-7.040-23.040-13.76-34.624-21.184-5.76-3.776-10.944-7.68-16.64-11.392zM576.96 632.32c16.512 8.32 32.64 16.064 48.448 23.168 2.688-18.112 4.992-36.992 6.976-56.384-8.896 5.696-16.384 10.368-20.352 12.8-11.712 7.168-23.424 13.632-35.072 20.416zM703.68 472.064c9.408-7.168 18.624-14.336 27.456-21.44-8.832-7.488-17.984-14.912-27.392-22.464 0.192 8.576 0.256 15.808 0.256 19.84 0 4.672-0.128 13.504-0.32 24.064zM632.512 297.856c-1.856-18.176-3.968-35.84-6.464-52.8-14.592 6.208-29.568 13.056-44.736 20.224 11.52 7.040 23.040 13.76 34.624 21.184 5.696 3.776 10.88 7.68 16.576 11.392zM411.968 284.096c11.712-7.168 23.36-13.632 35.072-20.416-16.512-8.32-32.64-16.064-48.448-23.168-2.688 18.048-4.992 36.928-6.976 56.384 8.896-5.632 16.384-10.368 20.352-12.8zM894.4 214.656c-10.112-16.512-32.512-24.384-64.128-24.384-36.928 0-86.784 11.264-143.616 31.232 6.784 43.904 11.008 86.784 13.504 123.392 28.608 21.12 55.040 42.496 80.064 64 90.304-81.984 137.28-156.416 114.176-194.24zM828.416 713.28c29.312 0 50.368-7.36 60.352-22.912 24-37.312-21.312-112.896-109.76-197.056-27.52 22.4-54.656 42.88-79.104 60.224-2.624 37.76-6.976 81.792-14.208 126.784 56.768 21.056 106.368 32.96 142.72 32.96zM512 896c41.408 0 78.144-69.184 101.568-176-33.664-14.528-68.48-31.488-104.128-50.88-34.24 17.536-67.648 32.896-99.968 46.144 23.296 109.504 60.48 180.736 102.528 180.736zM129.6 681.344c10.112 16.512 32.512 24.384 64.128 24.384 36.928 0 86.784-11.264 143.616-31.232-6.848-43.904-11.008-86.72-13.504-123.392-28.608-21.12-55.040-42.496-80.064-64-90.304 81.984-137.28 156.416-114.176 194.24zM324.032 342.528c2.624-37.76 6.976-81.792 14.208-126.784-56.704-21.056-106.304-32.96-142.656-32.96-29.312 0-50.368 7.36-60.352 22.912-24 37.312 21.312 112.896 109.76 197.056 27.456-22.4 54.592-42.944 79.040-60.224z"/>
<glyph unicode="" glyph-name="icon_mobile" data-tags="icon_mobile" d="M768-64c35.328 0 64 28.672 64 64v896c0 35.328-28.672 64-64 64h-448c-35.328 0-64-28.672-64-64v-896c0-35.328 28.672-64 64-64h448zM512 35.968c0 19.904 16.128 35.968 35.968 35.968s35.968-16.128 35.968-35.968-16.064-35.968-35.968-35.968-35.968 16.128-35.968 35.968zM672 896c17.664 0 32-14.336 32-32s-14.336-32-32-32h-64c-17.664 0-32 14.336-32 32s14.336 32 32 32h64zM512 864c0-17.664-14.336-32-32-32s-32 14.336-32 32c0 17.664 14.336 32 32 32s32-14.336 32-32zM320 768h448v-640h-448v640z"/>
<glyph unicode="" glyph-name="icon_tablet" data-tags="icon_tablet" d="M832-64c35.328 0 64 28.672 64 64v896c0 35.328-28.672 64-64 64h-640c-35.328 0-64-28.672-64-64v-896c0-35.328 28.672-64 64-64h640zM512-35.968c-19.904 0-35.968 16.128-35.968 35.968s16.064 35.968 35.968 35.968 35.968-16.064 35.968-35.968-16.064-35.968-35.968-35.968zM256 832h512v-768h-512v768z"/>
<glyph unicode="" glyph-name="icon_laptop" data-tags="icon_laptop" d="M990.976 192h-30.976v576c0 35.328-28.672 64-64 64h-768c-35.328 0-64-28.672-64-64v-576h-30.976c-18.24 0-33.024-14.336-33.024-32s14.784-32 33.024-32h957.952c18.24 0 33.024 14.336 33.024 32s-14.784 32-33.024 32zM896 768v-509.312h-768v509.312h768z"/>
<glyph unicode="" glyph-name="icon_desktop" data-tags="icon_desktop" d="M960 896h-896c-35.328 0-64-28.672-64-64v-576c0-35.328 28.672-64 64-64h319.936c-0.128-46.272-1.984-106.368-19.52-128h-12.928c-17.408 0-31.488-14.336-31.488-32s14.080-32 31.488-32h320.96c17.472 0 31.552 14.336 31.552 32s-14.080 32-31.488 32h-12.928c-17.6 21.632-19.392 81.728-19.52 128h319.936c35.328 0 64 28.672 64 64v576c0 35.328-28.672 64-64 64zM448 192l-0.064-0.128c0 0.064 0 0.064 0.064 0.128v0zM576.064 191.872l-0.064 0.128h0.064c0-0.064 0-0.064 0-0.128zM960 320h-896v512h896v-512z"/>
<glyph unicode="" glyph-name="icon_camera_alt" data-tags="icon_camera_alt" d="M960 704h-128c0 0-36.992 0-64 64-13.76 32.576-28.672 64-64 64h-256c-35.328 0-50.688-31.232-64-64-25.984-64-64-64-64-64h-64c0 35.328-28.672 64-64 64h-64c-35.328 0-64-28.672-64-64-35.328 0-64-28.672-64-64v-512c0-35.328 28.672-64 64-64h896c35.328 0 64 28.672 64 64v512c0 35.328-28.672 64-64 64zM960 128h-896v256h291.2c15.68-108.416 108.032-192 220.8-192 115.52 0 209.472 87.744 221.568 200h162.432v-264zM416 416c0 88.256 71.808 160 160 160s160-71.744 160-160c0-88.192-71.808-160-160-160s-160 71.808-160 160zM796.8 448c-15.68 108.416-108.032 192-220.8 192s-205.12-83.584-220.8-192h-291.2v192h256c37.376 0 92.16 27.2 123.264 103.936 5.312 12.992 8.896 20.16 11.264 24.064h242.688c4.288-7.040 9.792-20.032 11.84-24.896 41.408-98.112 109.696-103.104 122.944-103.104h128v-192h-163.2zM128 543.36c0-17.673 14.327-32 32-32s32 14.327 32 32c0 17.673-14.327 32-32 32s-32-14.327-32-32z"/>
<glyph unicode="" glyph-name="icon_mail_alt" data-tags="icon_mail_alt" d="M960 832h-896c-35.328 0-64-28.672-64-64v-640c0-35.328 28.672-64 64-64h896c35.328 0 64 28.672 64 64v640c0 35.328-28.672 64-64 64zM363.52 382.272l148.608-100.992 147.712 101.696 254.912-254.976h-805.504l254.272 254.272zM64 173.248v412.672l245.632-166.976-245.632-245.696zM713.408 419.84l246.592 169.728v-416.32l-246.592 246.592zM960 768v-103.552l-1.344 1.92-446.784-307.648-447.872 304.512v104.768h896z"/>
<glyph unicode="" glyph-name="icon_cone_alt" data-tags="icon_cone_alt" d="M798.912 320l-24.256 64h-525.312l-24.256-64-97.088-256h768l-97.088 256zM293.568 320h436.928l72.832-192h-582.592l72.832 192zM657.664 512h68.48l-24.256 64-130.176 343.104c-9.536 24.64-33.28 40.896-59.712 40.896s-50.176-16.256-59.712-40.896l-154.368-407.104h359.744zM512 896l121.344-320h-242.688l121.344 320zM991.488 0h-958.976c-17.984 0-32.512-13.568-32.512-31.488s14.528-32.512 32.512-32.512h958.976c17.984 0 32.512 14.528 32.512 32.512s-14.528 31.488-32.512 31.488z"/>
<glyph unicode="" glyph-name="icon_ribbon_alt" data-tags="icon_ribbon_alt" d="M167.488-59.136c7.936-3.264 16.256-4.864 24.512-4.864 16.64 0 33.024 6.528 45.248 18.752l274.752 274.752 274.752-274.752c12.224-12.224 28.608-18.752 45.248-18.752 8.256 0 16.576 1.6 24.448 4.864 23.936 9.92 39.552 33.28 39.552 59.136v896c0 35.328-28.672 64-64 64h-640c-35.328 0-64-28.672-64-64v-896c0-25.856 15.616-49.216 39.488-59.136zM512 320l-320-320v704h640v-704l-320 320zM832 896v-128h-640v128h640z"/>
<glyph unicode="" glyph-name="icon_bag_alt" data-tags="icon_bag_alt" d="M192-64h640c35.328 0 64 28.672 64 64v704c0 35.328-28.672 64-64 64h-128.32c-1.536 106.304-86.656 192-191.68 192s-190.144-85.696-191.68-192h-128.32c-35.328 0-64-28.672-64-64v-704c0-35.328 28.672-64 64-64zM832 704v-704h-640v704h640zM512 896c69.568 0 126.144-57.152 127.68-128h-255.36c1.536 70.848 58.112 128 127.68 128zM416 576h192c17.664 0 32 14.336 32 32s-14.336 32-32 32h-192c-17.664 0-32-14.336-32-32s14.336-32 32-32z"/>
<glyph unicode="" glyph-name="icon_creditcard" data-tags="icon_creditcard" d="M960 832h-896c-35.328 0-64-28.672-64-64v-640c0-35.328 28.672-64 64-64h896c35.328 0 64 28.672 64 64v640c0 35.328-28.672 64-64 64zM960 128h-896v384h896v-384zM64 637.312v130.688h896v-130.688h-896zM160 192h320c17.664 0 32 14.336 32 32s-14.336 32-32 32h-320c-17.664 0-32-14.336-32-32s14.336-32 32-32zM576 224c0-17.673 14.327-32 32-32s32 14.327 32 32c0 17.673-14.327 32-32 32s-32-14.327-32-32zM704 224c0-17.673 14.327-32 32-32s32 14.327 32 32c0 17.673-14.327 32-32 32s-32-14.327-32-32zM832 224c0-17.673 14.327-32 32-32s32 14.327 32 32c0 17.673-14.327 32-32 32s-32-14.327-32-32z"/>
<glyph unicode="" glyph-name="icon_cart_alt" data-tags="icon_cart_alt" d="M192 64c0-35.346 28.654-64 64-64s64 28.654 64 64c0 35.346-28.654 64-64 64s-64-28.654-64-64zM768 64c0-35.346 28.654-64 64-64s64 28.654 64 64c0 35.346-28.654 64-64 64s-64-28.654-64-64zM-1.856 864c0-17.664 14.336-32 32-32h66.496l39.744-169.984 55.616-278.016c0-2.304 1.088-4.288 1.344-6.528l-32.576-146.56c-2.112-9.472 0.192-19.392 6.272-26.944 6.080-7.616 15.232-11.968 24.96-11.968h726.016c17.664 0 32 14.336 32 32s-14.336 32-32 32h-686.080l14.656 65.92c3.2-0.512 6.080-1.92 9.408-1.92h583.36c35.328 0 56.64 6.976 73.664 48l103.936 318.848c18.048 57.152-21.568 81.152-56.96 81.152h-768c-4.992 0-9.344-1.728-14.016-2.816l-24.832 106.112c-3.392 14.464-16.256 24.704-31.168 24.704h-91.84c-17.728 0-32-14.336-32-32zM193.28 704h761.92l-102.144-313.536c-1.216-2.752-2.24-4.736-3.008-6.080-2.112-0.192-5.44-0.384-10.688-0.384h-583.36v6.336l-1.216 6.208-61.504 307.456z"/>
<glyph unicode="" glyph-name="icon_paperclip" data-tags="icon_paperclip" d="M450.432 736.704c-67.776 67.648-152.896 73.344-212.096 14.144-59.2-59.136-53.568-144.384 14.080-212.096l366.336-366.336c12.48-12.48 32.768-12.48 45.248 0s12.48 32.768 0 45.248l-366.336 366.336c-32.832 32.832-53.76 81.984-14.144 121.6 39.552 39.616 88.768 18.624 121.6-14.208l407.296-407.232c116.8-116.928 145.92-170.816 76.352-240.448-70.4-70.336-145.024-52.928-257.408 59.392l-452.48 452.608c-73.088 73.088-124.288 192.448-28.224 288.448 114.048 114.048 244.288 1.92 281.408-35.264l415.744-415.808c12.48-12.48 32.768-12.48 45.248 0s12.48 32.768 0 45.248l-415.744 415.808c-125.696 125.696-268.224 139.136-371.968 35.264-104.832-104.768-93.504-257.088 28.288-378.944l452.544-452.544c38.464-38.464 120.832-120.768 215.552-120.768 42.56 0 87.68 16.704 132.352 61.376 127.168 127.232 9.536 244.992-76.352 330.944l-407.296 407.232z"/>
<glyph unicode="" glyph-name="icon_tag_alt" data-tags="icon_tag_alt" d="M993.856 959.68c-0.576 0-1.152 0-1.728 0-0.512 0-0.96 0.064-1.472 0h-402.368c-9.792-0.448-32.064-15.744-34.944-18.624l-470.656-470.656c-24.96-24.96-24.96-65.408 0-90.368l361.344-361.344c12.544-12.48 28.864-18.688 45.184-18.688s32.704 6.208 45.184 18.688l470.656 470.656c2.88 2.88 18.944 22.656 18.944 34.944v403.648c0.896 17.856-12.608 31.744-30.144 31.744zM960 536.256c-0.96-1.472-1.92-3.008-2.816-4.224l-467.904-468.032-361.344 361.152 468.032 468.032c1.28 0.896 2.752 1.856 4.288 2.816h359.744v-359.744zM832 800c0-17.673 14.327-32 32-32s32 14.327 32 32c0 17.673-14.327 32-32 32s-32-14.327-32-32z"/>
<glyph unicode="" glyph-name="icon_tags_alt" data-tags="icon_tags_alt" d="M930.56 960c-0.384 0-0.768 0-1.152 0-0.192 0-0.384 0-0.576 0-0.064 0-0.128 0-0.192 0-0.32 0-0.576 0-0.832 0-0.128 0-0.256 0-0.384 0h-338.432c-9.792-0.512-32.064-15.808-34.944-18.688l-407.36-407.296c-24.96-24.96-24.96-65.408 0-90.368l50.816-50.816-50.816-50.816c-24.96-24.96-24.96-65.408 0-90.368l297.344-297.344c12.48-12.48 28.8-18.688 45.184-18.688 16.32 0 32.704 6.208 45.184 18.688l407.296 407.36c2.944 2.88 18.304 22.592 18.304 34.88v531.648c0.896 17.856-11.904 31.808-29.44 31.808zM896.704 407.36c-0.192-0.32-0.32-0.512-0.256-0.512 0 0 0 0 0 0l-407.168-407.36-297.344 297.216 50.816 50.816 201.28-201.28c12.48-12.48 28.8-18.688 45.184-18.688 16.32 0 32.704 6.208 45.184 18.688l362.304 362.304v-101.184zM896.704 704v-104.64c-0.192-0.32-0.32-0.512-0.256-0.512v0c0 0 0 0 0 0l-407.168-407.36-297.344 297.216 404.608 404.544c1.216 0.896 2.688 1.856 4.16 2.752h296v-192zM768.704 800.256c0-17.673 14.327-32 32-32s32 14.327 32 32c0 17.673-14.327 32-32 32s-32-14.327-32-32z"/>
<glyph unicode="" glyph-name="icon_trash_alt" data-tags="icon_trash_alt" d="M832 896h-128c0 35.328-28.672 64-64 64h-192c-35.328 0-64-28.672-64-64h-128c-35.328 0-64-28.672-64-64h704c0 35.328-28.672 64-64 64zM192 0c0-35.328 28.672-64 64-64h576c35.328 0 64 28.672 64 64v768h-704v-768zM256 704h576v-704h-576v704zM352 640c-17.664 0-32-14.336-32-32v-512c0-17.664 14.336-32 32-32s32 14.336 32 32v512c0 17.664-14.336 32-32 32zM544 640c-17.664 0-32-14.336-32-32v-512c0-17.664 14.336-32 32-32s32 14.336 32 32v512c0 17.664-14.336 32-32 32zM736 640c-17.664 0-32-14.336-32-32v-512c0-17.664 14.336-32 32-32s32 14.336 32 32v512c0 17.664-14.336 32-32 32z"/>
<glyph unicode="" glyph-name="icon_cursor_alt" data-tags="icon_cursor_alt" d="M314.496 948.608c-8.704 10.304-22.848 14.080-35.456 9.472s-21.056-16.64-21.056-30.080v-835.008c0-13.824 8.832-26.048 21.952-30.4 3.264-1.088 6.656-1.6 10.048-1.6 9.92 0 19.52 4.608 25.664 12.928l143.104 192.768 99.264-283.968c12.736-36.352 52.544-55.552 88.896-42.816s55.552 52.544 42.816 88.896l-97.408 278.592 223.872-43.328c13.376-2.688 26.816 3.52 33.664 15.168 6.848 11.712 5.632 26.432-3.136 36.8l-532.224 632.576zM494.4 391.616c-12.096 2.432-24.448-2.432-31.744-12.352l-140.608-189.44v650.432l417.536-496.128-245.184 47.488z"/>
<glyph unicode="" glyph-name="icon_mic_alt" data-tags="icon_mic_alt" d="M448 134.144v-134.144h-96c-17.664 0-32-14.336-32-32s14.336-32 32-32h320c17.664 0 32 14.336 32 32s-14.336 32-32 32h-96v134.528c133.312 26.304 256 134.208 256 313.472v96c0 17.664-14.336 32-32 32s-32-14.336-32-32v-96c0-168.064-128.832-256-256-256-123.328 0-256 80.128-256 256v96c0 17.664-14.336 32-32 32s-32-14.336-32-32v-96c0-181.76 120.512-288.384 256-313.856zM512 256c105.856 0 192 86.144 192 192v320c0 105.856-86.144 192-192 192s-192-86.144-192-192v-320c0-105.856 86.144-192 192-192zM384 768c0 70.72 57.28 128 128 128s128-57.28 128-128v-320c0-70.72-57.28-128-128-128s-128 57.28-128 128v320z"/>
<glyph unicode="" glyph-name="icon_compass_alt" data-tags="icon_compass_alt" d="M512 960c-282.752 0-512-229.248-512-512s229.248-512 512-512 512 229.248 512 512-229.248 512-512 512zM512 0c-247.040 0-448 200.96-448 448s200.96 448 448 448 448-200.96 448-448-200.96-448-448-448zM719.040 699.136l-198.656-123.968c63.872-4.224 114.56-54.848 118.784-118.784l123.968 198.656c7.936 12.608 6.080 29.056-4.48 39.552-10.624 10.624-27.136 12.416-39.616 4.544zM384.832 439.616l-123.968-198.72c-7.936-12.608-6.080-29.056 4.48-39.552 6.208-6.144 14.4-9.344 22.656-9.344 5.888 0 11.776 1.6 16.96 4.864l198.656 123.968c-63.872 4.224-114.56 54.912-118.784 118.784zM520.384 575.168c-2.816 0.192-5.504 0.832-8.384 0.832-70.72 0-128-57.28-128-128 0-2.88 0.64-5.568 0.832-8.384 4.224-63.872 54.912-114.56 118.784-118.784 2.816-0.192 5.504-0.832 8.384-0.832 70.72 0 128 57.28 128 128 0 2.88-0.64 5.568-0.832 8.384-4.224 63.872-54.912 114.56-118.784 118.784zM448 448c0 35.264 28.736 64 64 64s64-28.736 64-64-28.736-64-64-64-64 28.736-64 64z"/>
<glyph unicode="" glyph-name="icon_pin_alt" data-tags="icon_pin_alt" d="M518.784 434.432c91.968 0 166.784 74.816 166.784 166.784s-74.816 166.784-166.784 166.784-166.784-74.816-166.784-166.784c0-91.968 74.816-166.784 166.784-166.784zM518.784 704c56.64 0 102.784-46.080 102.784-102.784s-46.080-102.784-102.784-102.784-102.784 46.144-102.784 102.784 46.080 102.784 102.784 102.784zM495.488-46.656c5.376-5.952 10.56-9.792 15.552-12.48 0.064-0.064 0.192-0.064 0.256-0.128 3.456-1.792 6.848-3.136 10.048-3.136s6.592 1.344 10.048 3.136c0.064 0.064 0.192 0.064 0.256 0.128 4.992 2.688 10.176 6.528 15.552 12.48 0 0 297.472 323.52 327.36 603.84 1.792 14.464 3.008 29.12 3.008 44.032 0 198.144-160.64 358.784-358.784 358.784s-358.784-160.64-358.784-358.784c0-15.168 1.216-29.952 3.072-44.608 30.656-280.192 332.416-603.264 332.416-603.264zM518.784 896c162.56 0 294.784-132.224 294.784-294.784 0-10.816-0.768-22.336-2.624-37.248-22.912-214.784-224.576-466.816-289.536-543.488-66.624 76.8-271.168 328.192-294.848 544-1.728 14.144-2.56 25.792-2.56 36.736 0 162.56 132.224 294.784 294.784 294.784z"/>
<glyph unicode="" glyph-name="icon_pushpin_alt" data-tags="icon_pushpin_alt" d="M278.080 391.296c-13.632-15.488-18.944-36.608-14.336-56.704s18.688-36.736 37.696-44.672c45.44-19.008 122.688-31.040 210.624-33.472 0-0.128-0.064-0.256-0.064-0.448v-192c0-35.328 14.336-128 32-128s32 92.672 32 128v192c0 0.192-0.064 0.32-0.064 0.512 87.936 2.368 165.184 14.464 210.624 33.472 19.008 7.936 33.088 24.576 37.696 44.672s-0.704 41.216-14.336 56.64c-26.24 29.76-72.064 46.208-105.92 54.784v331.52c33.472 11.328 61.888 25.536 84.352 42.112 19.2 14.144 28.928 37.888 25.216 61.44s-20.224 43.136-42.88 50.752c-31.232 10.496-102.272 28.096-226.688 28.096-131.52 0-204.16-20.288-229.312-28.992-22.336-7.744-38.592-27.2-42.24-50.56-3.648-23.296 5.888-46.784 24.768-61.056 22.784-17.088 51.904-31.552 86.72-42.944h0.064v-330.368c-33.792-8.512-79.68-24.96-105.92-54.784zM403.904 837.248c-33.408 10.944-55.104 23.424-68.224 33.344 34.048 11.776 102.976 25.408 208.32 25.408 103.296 0 171.712-13.12 206.4-24.768-13.568-9.984-35.072-22.208-66.944-33.024l-43.456-14.72v-427.2l48.256-12.224c35.392-8.96 62.144-22.016 73.6-35.072-29.632-12.352-101.632-28.992-217.856-28.992s-188.224 16.64-217.856 28.992c11.52 13.056 38.272 26.112 73.6 35.072l48.256 12.224v426.56l-44.096 14.4z"/>
<glyph unicode="" glyph-name="icon_map_alt" data-tags="icon_map_alt" d="M973.888 830.464l-288 128c-4.544 1.024-9.216 1.536-13.888 1.536-4.16 0-8.384-0.384-12.48-1.216l-308.096-125.376-273.472 125.056c-4.608 1.024-9.28 1.536-13.952 1.536-14.4 0-28.544-4.864-40-14.080-15.168-12.096-24-30.464-24-49.92v-768c0-29.952 20.8-55.936 50.048-62.464l286.656-128c4.608-1.024 9.28-1.536 13.952-1.536 4.16 0 8.384 0.384 12.48 1.216l308.096 125.376 274.816-125.056c4.672-1.024 9.344-1.536 13.952-1.536 14.4 0 28.608 4.864 40.064 14.080 15.104 12.16 23.936 30.528 23.936 49.92v768c0 30.016-20.864 56-50.112 62.464zM384 781.248l256 101.952v-768l-256-101.952v768zM64 896l256-114.304v-768l-256 114.304v768zM960 0l-256 113.792v768l256-113.792v-768z"/>
<glyph unicode="" glyph-name="icon_drawer_alt" data-tags="icon_drawer_alt" d="M809.984 896h-601.984c-35.328 0-64-24-80-64l-128-446.976v-353.024c0-17.664 14.336-32 32-32h960c17.664 0 32 14.336 32 32v349.056l-128 450.944c-17.984 40-50.624 64-86.016 64zM188.48 810.688c2.944 6.592 10.432 21.312 19.52 21.312h601.984c8.768 0 18.88-9.024 25.984-22.784l120.64-425.216h-284.608c-17.664 0-32-14.336-32-32v-96h-256v96c0 17.664-14.336 32-32 32h-285.696l122.176 426.688zM960 64h-896v256h256v-96c0-17.664 14.336-32 32-32h320c17.664 0 32 14.336 32 32v96h256v-256z"/>
<glyph unicode="" glyph-name="icon_toolbox_alt" data-tags="icon_toolbox_alt" d="M960 768h-256c0-35.328-28.672-64-64-64h320v-128h-320c35.328 0 64-28.672 64-64h256v-384h-896v384h256c0 35.328 28.672 64 64 64h-320v128h320c-35.328 0-64 28.672-64 64h-256c-35.328 0-64-28.672-64-64v-576c0-35.328 28.672-64 64-64h896c35.328 0 64 28.672 64 64v576c0 35.328-28.672 64-64 64zM384 704h256c35.328 0 64 28.672 64 64v64c0 35.328-28.672 64-64 64h-256c-35.328 0-64-28.672-64-64v-64c0-35.328 28.672-64 64-64zM384 832h256v-64h-256v64zM320 512v-64c0-35.328 28.672-64 64-64h256c35.328 0 64 28.672 64 64v64c0 35.328-28.672 64-64 64h-256c-35.328 0-64-28.672-64-64zM640 448h-256v64h256v-64z"/>
<glyph unicode="" glyph-name="icon_book_alt" data-tags="icon_book_alt" d="M929.344 960h-704c-88.32 0-159.808-70.976-161.088-158.976l-0.256 0.32v-704c0-89.088 72.256-161.344 161.344-161.344h544c35.328 0 62.656 28.672 62.656 64v672c0 17.664-12.992 32-30.656 32h-576c-53.696 0-97.344 41.024-97.344 94.656 0 53.696 43.648 97.344 97.344 97.344h670.656v-736c0-17.664 15.68-32 33.344-32s30.656 14.336 30.656 32v768c0 17.664-12.992 32-30.656 32zM225.344 640h542.72l1.28-640h-544c-53.696 0-97.344 43.648-97.344 97.344v573.952c26.88-19.712 60.48-31.296 97.344-31.296z"/>
<glyph unicode="" glyph-name="icon_calendar" data-tags="icon_calendar" d="M1020.224 780.032c-8.064 26.048-31.488 45.312-60.224 45.312h-64v-99.328c0-52.928-43.072-96-96-96s-96 43.072-96 96v99.328h-384.32v-99.328c0-52.928-43.072-96-96-96s-96 43.072-96 96v99.328h-63.68c-28.736 0-52.16-19.264-60.224-45.312h-3.776v-780.032c0-35.328 28.672-64 64-64h896c35.328 0 64 28.672 64 64v780.032h-3.776zM960 0h-896v512h896v-512zM223.68 694.016c17.664 0 32 14.336 32 32v201.984c0 17.664-14.336 32-32 32s-32-14.336-32-32v-201.984c0-17.664 14.336-32 32-32zM800 694.016c17.664 0 32 14.336 32 32v201.984c0 17.664-14.336 32-32 32s-32-14.336-32-32v-201.984c0-17.664 14.336-32 32-32z"/>
<glyph unicode="" glyph-name="icon_film" data-tags="icon_film" d="M960 960h-896c-35.328 0-64-28.672-64-64v-896c0-35.328 28.672-64 64-64h896c35.328 0 64 28.672 64 64v896c0 35.328-28.672 64-64 64zM192 384v-128h-128v128h128zM64 512v128h128v-128h-128zM256 320h512v-320h-512v320zM768 384h-512v512h512v-512zM832 384h128v-128h-128v128zM832 512v128h128v-128h-128zM832 768v128h128v-128h-128zM192 768h-128v128h128v-128zM64 128h128v-128h-128v128zM832 128h128v-128h-128v128z"/>
<glyph unicode="" glyph-name="icon_table" data-tags="icon_table" d="M1022.912 835.328c-2.816 32.96-29.44 60.672-62.912 60.672h-896c-33.472 0-60.096-27.712-62.912-60.672h-1.088v-835.328c0-35.328 28.672-64 64-64h896c35.328 0 64 28.672 64 64v835.328h-1.088zM384 512v192h256v-192h-256zM640 448v-197.312h-256v197.312h256zM320 704v-192h-256v192h256zM64 448h256v-197.312h-256v197.312zM64 0v192h256v-192h-256zM384 0v192h256v-192h-256zM960 0h-256v192h256v-192zM960 250.688h-256v197.312h256v-197.312zM960 512h-256v192h256v-192z"/>
<glyph unicode="" glyph-name="icon_contacts_alt" data-tags="icon_contacts_alt" d="M832 960h-768c-35.328 0-64-28.672-64-64v-896c0-35.328 28.672-64 64-64h768c35.328 0 64 28.672 64 64v896c0 35.328-28.672 64-64 64zM64 896h128v-896h-128v896zM832 0h-576v896h576v-896zM443.584 616.512c0 0 0 0 0 0 0-53.514 43.382-96.896 96.896-96.896s96.896 43.382 96.896 96.896c0 0 0 0 0 0s0 0 0 0c0 53.514-43.382 96.896-96.896 96.896s-96.896-43.382-96.896-96.896c0 0 0 0 0 0zM542.464 480.896c-87.488 0-158.464-95.168-158.464-212.544s316.992-117.376 316.992 0-70.976 212.544-158.528 212.544zM960 896h64v-192h-64zM960 640h64v-192h-64zM960 384h64v-192h-64z"/>
<glyph unicode="" glyph-name="icon_headphones" data-tags="icon_headphones" d="M960 320v128c0 294.144-225.344 448-448 448-217.216 0-448-156.992-448-448v-128c-35.328 0-64-28.672-64-64v-128c0-35.328 28.672-64 64-64 0-35.328 28.672-64 64-64s64 28.672 64 64v256c0 35.328-28.672 64-64 64v64c0 252.096 193.216 384 384 384 184.96 0 384-120.128 384-384v-64c-35.328 0-64-28.672-64-64v-256c0-35.328 28.672-64 64-64s64 28.672 64 64c35.328 0 64 28.672 64 64v128c0 35.328-28.672 64-64 64z"/>
<glyph unicode="" glyph-name="icon_lifesaver" data-tags="icon_lifesaver" d="M512 960c-131.008 0-262.080-49.984-362.048-149.952-199.936-199.936-199.936-524.16 0-724.096 99.968-99.968 231.040-149.952 362.048-149.952s262.080 49.984 362.048 149.952c199.936 199.936 199.936 524.16 0 724.096-99.968 99.968-231.040 149.952-362.048 149.952zM331.008 267.008c-48.384 48.32-75.008 112.64-75.008 180.992s26.624 132.672 75.008 180.992c48.32 48.384 112.64 75.008 180.992 75.008s132.672-26.624 180.992-75.008c48.384-48.32 75.008-112.64 75.008-180.992s-26.624-132.672-75.008-180.992c-48.32-48.384-112.64-75.008-180.992-75.008s-132.672 26.624-180.992 75.008zM709.952 849.6l-98.752-98.752c-32.256 10.56-65.6 17.152-99.2 17.152-30.592 0-60.864-5.824-90.496-14.528l-99.84 99.84c58.88 27.584 123.392 42.688 190.336 42.688 69.888 0 137.088-16.32 197.952-46.4zM106.752 638.272l99.84-99.84c-18.304-62.080-17.536-128 2.56-189.696l-98.752-98.752c-30.080 60.928-46.4 128.128-46.4 198.016 0 66.944 15.104 131.456 42.752 190.272zM195.2 131.264v0c0-0.064 0-0.064 0 0v0zM329.408 39.104l100.864 100.864c26.816-7.104 54.144-11.968 81.728-11.968 30.592 0 60.864 5.824 90.496 14.592l99.84-99.84c-58.88-27.648-123.392-42.752-190.336-42.752-64.064 0-125.824 13.76-182.592 39.104zM917.12 257.856l-99.648 99.648c16.576 56.256 17.536 115.584 2.56 172.224l100.672 100.672c52.672-118.464 51.456-254.912-3.584-372.544z"/>
<glyph unicode="" glyph-name="icon_piechart" data-tags="icon_piechart" d="M512-64c165.056 0 311.488 78.464 405.12 199.744l-405.12 312.256v512c-282.752 0-512-229.248-512-512s229.248-512 512-512zM448 891.456v-443.456c0-19.84 9.216-38.592 24.896-50.688l350.848-270.464c-83.136-81.28-193.792-126.848-311.744-126.848-247.040 0-448 200.96-448 448 0 225.28 167.168 412.288 384 443.456zM600 951.424v-457.92l365.568-281.792c37.12 70.72 58.432 150.912 58.432 236.288 0 252.672-183.296 461.632-424 503.424z"/>
<glyph unicode="" glyph-name="icon_refresh" data-tags="icon_refresh" d="M959.168 960c-35.84 0-64.832-29.056-64.832-64.832v-151.168c-73.088 88.512-157.312 216-389.12 216-278.528 0-505.216-226.624-505.216-505.216s226.688-505.216 505.216-505.216c218.752 0 411.648 139.712 480.128 347.648 11.328 34.624-7.488 71.936-42.112 83.328s-71.936-7.424-83.328-42.048c-50.56-153.664-193.088-256.896-354.688-256.896-205.824 0-373.248 167.424-373.248 373.248s167.424 372.48 373.248 372.48c145.728 0 226.688-90.688 292.736-185.792h-163.008c-35.84 0-64.832-29.056-64.832-64.832 0-35.84 29.056-64.832 64.832-64.832h324.224c35.776-0.128 64.832 28.928 64.832 64.704v318.592c0 35.776-29.056 64.832-64.832 64.832z"/>
<glyph unicode="" glyph-name="icon_link_alt" data-tags="icon_link_alt" d="M305.856 830.208c37.44 37.44 98.304 37.44 135.744 0l343.232-343.232c16.896 63.936 1.088 134.72-49.024 184.832l-226.304 226.24c-75.008 75.008-196.544 75.008-271.552 0l-50.88-50.88c-75.008-75.008-75.008-196.544 0-271.552l226.304-226.304c50.112-50.112 120.896-65.92 184.832-49.024l-343.232 343.232c-37.44 37.44-37.44 98.304 0 135.744l50.88 50.944zM514.496-2.048c75.008-75.008 196.544-75.008 271.552 0l50.88 50.944c75.008 75.008 75.008 196.544 0 271.552l-226.304 226.176c-50.112 50.112-120.896 65.92-184.832 49.024l343.232-343.232c37.44-37.44 37.44-98.304 0-135.744l-50.944-50.944c-37.44-37.44-98.304-37.44-135.744 0l-343.168 343.296c-16.896-63.936-1.088-134.72 49.024-184.832l226.304-226.24z"/>
<glyph unicode="" glyph-name="icon_link" data-tags="icon_link" d="M241.28 455.36c40.896-40.896 101.056-55.232 155.776-38.912l-302.336 302.272c-9.856 9.856-15.040 24.128-15.040 41.152 0 28.16 14.72 64.128 34.24 83.648 25.6 25.6 95.040 53.952 127.36 21.824l302.272-302.336c4.416 14.784 6.656 30.144 6.656 45.504 0 41.728-16.192 80.832-45.568 110.272l-204.992 204.928c-61.568 61.568-183.936 38.464-244.16-21.76-34.944-34.944-56.64-89.088-56.64-141.312 0-40.576 13.312-76.224 37.44-100.352l204.992-204.928zM782.72 440.64c-40.896 40.896-101.056 55.232-155.776 38.912l302.336-302.336c9.856-9.856 15.040-24.064 15.040-41.152 0-28.16-14.72-64.128-34.24-83.648-25.6-25.6-95.040-53.952-127.36-21.824l-302.272 302.4c-4.416-14.784-6.656-30.144-6.656-45.504 0-41.728 16.192-80.832 45.568-110.272l204.928-204.928c61.568-61.568 183.936-38.464 244.16 21.76 34.944 34.944 56.64 89.088 56.64 141.312 0 40.576-13.312 76.224-37.44 100.352l-204.928 204.928zM293.248 666.816c-8.192-8.128-12.672-19.008-12.672-30.528s4.48-22.336 12.608-30.464l376.576-376.64c16.832-16.768 44.16-16.768 60.992 0 8.192 8.128 12.608 19.008 12.608 30.528s-4.48 22.336-12.608 30.464l-376.576 376.64c-16.768 16.768-44.16 16.768-60.928 0z"/>
<glyph unicode="" glyph-name="icon_loading" data-tags="icon_loading" d="M864.64 229.76c0-3.217 2.607-5.824 5.824-5.824s5.824 2.607 5.824 5.824c0 0 0 0 0 0 0 3.217-2.607 5.824-5.824 5.824s-5.824-2.607-5.824-5.824c0 0 0 0 0 0zM736.064 97.088c0 0 0 0 0 0 0-6.398 5.186-11.584 11.584-11.584s11.584 5.186 11.584 11.584c0 0 0 0 0 0s0 0 0 0c0 6.398-5.186 11.584-11.584 11.584s-11.584-5.186-11.584-11.584c0 0 0 0 0 0zM562.752 28.8c0-9.614 7.794-17.408 17.408-17.408s17.408 7.794 17.408 17.408c0 9.614-7.794 17.408-17.408 17.408s-17.408-7.794-17.408-17.408zM376.192 37.952c0 0 0 0 0 0 0-12.795 10.373-23.168 23.168-23.168s23.168 10.373 23.168 23.168c0 0 0 0 0 0s0 0 0 0c0 12.795-10.373 23.168-23.168 23.168s-23.168-10.373-23.168-23.168c0 0 0 0 0 0zM210.688 122.88c0-16.012 12.98-28.992 28.992-28.992s28.992 12.98 28.992 28.992c0 0 0 0 0 0 0 16.012-12.98 28.992-28.992 28.992s-28.992-12.98-28.992-28.992c0 0 0 0 0 0zM96.064 267.264c0-19.228 15.588-34.816 34.816-34.816s34.816 15.588 34.816 34.816c0 19.228-15.588 34.816-34.816 34.816s-34.816-15.588-34.816-34.816zM53.056 444.544c0-22.41 18.166-40.576 40.576-40.576s40.576 18.166 40.576 40.576c0 22.41-18.166 40.576-40.576 40.576s-40.576-18.166-40.576-40.576zM88.448 620.672c0-25.626 20.774-46.4 46.4-46.4s46.4 20.774 46.4 46.4c0 25.626-20.774 46.4-46.4 46.4s-46.4-20.774-46.4-46.4zM194.624 762.688c0-28.843 23.381-52.224 52.224-52.224s52.224 23.381 52.224 52.224c0 0 0 0 0 0 0 28.843-23.381 52.224-52.224 52.224s-52.224-23.381-52.224-52.224c0 0 0 0 0 0zM350.528 844.032c0 0 0 0 0 0 0-32.024 25.96-57.984 57.984-57.984s57.984 25.96 57.984 57.984c0 0 0 0 0 0s0 0 0 0c0 32.024-25.96 57.984-57.984 57.984s-57.984-25.96-57.984-57.984c0 0 0 0 0 0zM525.632 849.088c0-35.24 28.568-63.808 63.808-63.808s63.808 28.568 63.808 63.808c0 0 0 0 0 0 0 35.24-28.568 63.808-63.808 63.808s-63.808-28.568-63.808-63.808c0 0 0 0 0 0zM685.952 776.96c0 0 0 0 0 0 0-38.421 31.147-69.568 69.568-69.568s69.568 31.147 69.568 69.568c0 0 0 0 0 0s0 0 0 0c0 38.421-31.147 69.568-69.568 69.568s-69.568-31.147-69.568-69.568c0 0 0 0 0 0zM799.872 641.472c0-41.638 33.754-75.392 75.392-75.392s75.392 33.754 75.392 75.392c0 41.638-33.754 75.392-75.392 75.392s-75.392-33.754-75.392-75.392zM845.184 465.984c0-44.854 36.362-81.216 81.216-81.216s81.216 36.362 81.216 81.216c0 44.854-36.362 81.216-81.216 81.216s-81.216-36.362-81.216-81.216z"/>
<glyph unicode="" glyph-name="icon_blocked" data-tags="icon_blocked" d="M512 960c-282.752 0-512-229.248-512-512s229.248-512 512-512 512 229.248 512 512-229.248 512-512 512zM512 832c211.712 0 384-172.288 384-384 0-82.816-26.624-159.36-71.36-222.144l-534.784 534.784c62.784 44.736 139.328 71.36 222.144 71.36zM128 448c0 82.816 26.624 159.36 71.36 222.144l534.784-534.784c-62.848-44.736-139.328-71.36-222.144-71.36-211.712 0-384 172.288-384 384z"/>
<glyph unicode="" glyph-name="icon_archive_alt" data-tags="icon_archive_alt" d="M960 896h-896c-35.328 0-64-28.672-64-64v-128h1024v128c0 35.328-28.672 64-64 64zM960 768h-896v64h896v-64zM64 64c0-35.328 28.672-64 64-64h768c35.328 0 64 28.672 64 64v576h-896v-576zM128 576h768v-512h-768v512zM672 512h-320c-17.664 0-32-14.336-32-32s14.336-32 32-32h320c17.664 0 32 14.336 32 32s-14.336 32-32 32z"/>
<glyph unicode="" glyph-name="icon_heart_alt" data-tags="icon_heart_alt" d="M1023.488 581.312c-2.688 157.056-130.112 297.024-287.488 297.024-91.008 0-171.2-47.616-224-117.504-52.8 69.888-132.992 117.504-224 117.504-157.376 0-284.8-139.968-287.488-297.024h-0.512c0-0.96 0.192-1.856 0.192-2.816 0-0.704-0.192-1.408-0.192-2.176 0-4.416 1.088-7.744 1.28-11.968 14.080-400.256 506.688-564.352 506.688-564.352s499.84 163.904 514.624 563.712c0.256 4.48 1.408 8 1.408 12.608 0 0.768-0.192 1.472-0.192 2.176 0 1.024 0.192 1.856 0.192 2.816h-0.512zM958.656 566.080c-11.328-307.2-362.112-463.36-450.56-497.856-87.68 34.56-432.064 190.016-442.88 499.072-0.128 3.2-0.448 6.144-0.896 9.344 0.064 1.152 0.128 2.368 0.192 3.584 2.176 126.912 104.512 234.112 223.488 234.112 65.664 0 128.704-33.536 172.928-92.096 12.096-16 30.976-25.408 51.072-25.408s38.976 9.408 51.072 25.408c44.224 58.56 107.264 92.096 172.928 92.096 118.976 0 221.312-107.2 223.488-234.112 0-1.216 0.064-2.432 0.192-3.648-0.448-3.136-0.832-6.464-1.024-10.496z"/>
<glyph unicode="" glyph-name="icon_star_alt" data-tags="icon_star_alt" d="M1020.288 545.728c-7.552 23.168-27.584 40.064-51.648 43.584l-275.84 40.064-123.392 249.92c-10.816 21.888-33.024 35.712-57.408 35.712s-46.592-13.824-57.408-35.712l-123.328-249.92-275.84-40.064c-24.128-3.52-44.16-20.416-51.648-43.584-7.552-23.168-1.28-48.576 16.192-65.6l199.616-194.56-47.104-274.752c-4.096-24 5.76-48.256 25.472-62.592 11.072-8.128 24.256-12.224 37.568-12.224 10.176 0 20.416 2.432 29.76 7.36l246.72 129.728 246.72-129.728c9.344-4.928 19.584-7.36 29.76-7.36 13.248 0 26.496 4.096 37.632 12.224 19.712 14.336 29.568 38.592 25.472 62.592l-47.104 274.752 199.616 194.56c17.408 16.96 23.68 42.432 16.192 65.6zM735.68 307.904l52.8-307.904-276.48 145.344-276.48-145.344 52.8 307.904-223.68 218.048 309.12 44.928 138.24 280.128 138.24-280.128 309.12-44.928-223.68-218.048z"/>
<glyph unicode="" glyph-name="icon_star-half_alt" data-tags="icon_star-half_alt" d="M1020.288 545.728c-7.552 23.168-27.584 40.064-51.712 43.52l-275.84 40.064-123.328 249.984c-10.816 21.888-33.024 35.712-57.408 35.712s-46.592-13.824-57.408-35.712l-123.328-249.92-275.84-40.064c-24.128-3.52-44.16-20.416-51.648-43.584-7.552-23.168-1.28-48.576 16.192-65.6l199.616-194.56-47.104-274.752c-4.096-24 5.76-48.256 25.472-62.592 11.072-8.128 24.256-12.224 37.568-12.224 10.176 0 20.416 2.432 29.76 7.36l246.72 129.728 246.72-129.728c9.344-4.928 19.584-7.36 29.76-7.36 13.248 0 26.496 4.096 37.632 12.224 19.712 14.336 29.568 38.592 25.472 62.592l-47.104 274.752 199.616 194.56c17.472 17.024 23.744 42.432 16.192 65.6zM735.68 307.904l52.8-307.904-276.48 145.344v705.664l138.24-280.128 309.12-44.928-223.68-218.048z"/>
<glyph unicode="" glyph-name="icon_star" data-tags="icon_star" d="M664.192 583.424l-156.8 317.696-156.8-317.696-350.592-50.944 253.696-247.296-59.904-349.184 313.6 164.864 313.6-164.864-59.904 349.184 253.696 247.296z"/>
<glyph unicode="" glyph-name="icon_star-half" data-tags="icon_star-half" d="M512 100.864v800.256l-156.8-317.696-350.592-50.944 253.696-247.296-59.904-349.184z"/>
<glyph unicode="" glyph-name="icon_tools" data-tags="icon_tools" d="M27.136 98.88c-37.504-37.504-37.504-98.24 0-135.744 18.752-18.752 43.328-28.096 67.904-28.096s49.152 9.344 67.904 28.096l315.2 315.2-135.808 135.744-315.2-315.2zM814.912 683.072l137.152 70.976 71.936 138.944-67.008 67.008-138.944-71.936-70.976-137.152-167.168-167.168 67.84-67.84zM844.928 318.72c-4.352 0.256-8.512 1.28-12.928 1.28-23.424 0-45.632-4.8-66.368-12.48l-394.112 394.112c7.68 20.736 12.48 42.944 12.48 66.368 0 4.416-1.024 8.576-1.28 12.928-6.784 99.904-89.088 179.072-190.72 179.072-29.568 0-57.28-7.232-82.304-19.2l127.552-127.552c6.72-6.72 11.328-14.656 14.4-23.040 8.384-22.72 3.84-49.152-14.4-67.456-12.48-12.48-28.864-18.752-45.248-18.752-7.552 0-15.040 1.664-22.208 4.352-8.384 3.136-16.32 7.68-23.040 14.4l-127.552 127.552c-11.968-25.024-19.2-52.736-19.2-82.304 0-101.632 79.168-183.936 179.072-190.72 4.352-0.256 8.512-1.28 12.928-1.28 23.424 0 45.632 4.8 66.368 12.48l394.112-394.112c-7.68-20.736-12.48-42.944-12.48-66.368 0-4.416 1.024-8.576 1.28-12.928 6.784-99.904 89.088-179.072 190.72-179.072 29.568 0 57.28 7.232 82.304 19.2l-127.552 127.552c-6.72 6.72-11.328 14.656-14.4 23.040-8.384 22.72-3.84 49.152 14.4 67.456 12.48 12.48 28.864 18.752 45.248 18.752 7.552 0 15.040-1.664 22.208-4.352 8.384-3.136 16.32-7.68 23.040-14.4l127.552-127.552c11.968 25.024 19.2 52.736 19.2 82.304 0 101.632-79.168 183.936-179.072 190.72z"/>
<glyph unicode="" glyph-name="icon_tool" data-tags="icon_tool" d="M832 192c7.552 0 15.040-1.664 22.208-4.352 8.384-3.136 16.32-7.68 23.040-14.4l127.552-127.552c11.968 25.024 19.2 52.736 19.2 82.304 0 101.632-79.168 183.936-179.072 190.72-4.352 0.256-8.512 1.28-12.928 1.28-23.424 0-45.632-4.8-66.368-12.48l-394.112 394.112c7.68 20.736 12.48 42.944 12.48 66.368 0 4.416-1.024 8.576-1.28 12.928-6.784 99.904-89.088 179.072-190.72 179.072-29.568 0-57.28-7.232-82.304-19.2l127.552-127.552c6.72-6.72 11.328-14.656 14.4-23.040 8.384-22.72 3.84-49.152-14.4-67.456-12.48-12.48-28.864-18.752-45.248-18.752-7.552 0-15.040 1.664-22.208 4.352-8.384 3.136-16.32 7.68-23.040 14.4l-127.552 127.552c-11.968-25.024-19.2-52.736-19.2-82.304 0-101.632 79.168-183.936 179.072-190.72 4.352-0.256 8.512-1.28 12.928-1.28 23.424 0 45.632 4.8 66.368 12.48l394.112-394.112c-7.68-20.736-12.48-42.944-12.48-66.368 0-4.416 1.024-8.576 1.28-12.928 6.784-99.904 89.088-179.072 190.72-179.072 29.568 0 57.28 7.232 82.304 19.2l-127.552 127.552c-6.72 6.72-11.328 14.656-14.4 23.040-8.384 22.72-3.84 49.152 14.4 67.456 12.48 12.48 28.864 18.752 45.248 18.752z"/>
<glyph unicode="" glyph-name="icon_cog" data-tags="icon_cog" d="M880.832 554.176c-8.064 28.032-19.008 54.72-32.896 79.744l63.616 133.824c-23.616 29.44-50.368 56.192-79.808 79.808l-133.824-63.616c-24.96 13.824-51.712 24.832-79.744 32.896l-49.792 139.904c-18.496 2.048-37.312 3.264-56.384 3.264s-37.888-1.216-56.384-3.264l-49.792-139.904c-27.968-8.064-54.72-19.072-79.68-32.896l-133.888 63.616c-29.44-23.616-56.192-50.368-79.808-79.808l63.616-133.824c-13.824-24.96-24.832-51.712-32.896-79.744l-139.904-49.792c-2.048-18.496-3.264-37.312-3.264-56.384s1.216-37.888 3.264-56.384l139.968-49.792c8.064-28.032 19.008-54.72 32.896-79.744l-63.616-133.824c23.616-29.44 50.368-56.256 79.808-79.808l133.824 63.616c24.96-13.824 51.712-24.832 79.744-32.896l49.792-139.968c18.432-1.984 37.248-3.2 56.32-3.2s37.888 1.216 56.384 3.264l49.792 139.968c28.032 8.064 54.72 19.008 79.744 32.896l133.824-63.616c29.44 23.616 56.256 50.368 79.808 79.808l-63.616 133.824c13.824 24.96 24.832 51.712 32.896 79.744l139.968 49.792c1.984 18.432 3.2 37.248 3.2 56.32s-1.216 37.888-3.264 56.384l-139.904 49.792zM512 192c-141.376 0-256 114.624-256 256s114.624 256 256 256 256-114.624 256-256c0-141.376-114.624-256-256-256zM384 448c0-70.692 57.308-128 128-128s128 57.308 128 128c0 70.692-57.308 128-128 128s-128-57.308-128-128z"/>
<glyph unicode="" glyph-name="icon_cogs" data-tags="icon_cogs" d="M31.296 409.664l111.040 4.096c13.12-17.024 28.288-32.512 45.184-46.336l-7.296-111.168c12.16-6.912 24.704-13.312 37.888-19.008 13.12-5.696 26.432-10.368 39.808-14.528l75.84 81.6c21.696-2.752 43.328-3.136 64.64-1.024l73.28-83.584c27.328 7.488 53.696 17.984 78.656 31.296l-4.032 111.104c16.96 13.12 32.448 28.288 46.272 45.184l111.168-7.296c6.912 12.16 13.312 24.704 19.008 37.888 5.696 13.12 10.368 26.432 14.528 39.808l-81.6 75.84c2.752 21.696 3.136 43.328 1.024 64.64l83.584 73.28c-7.488 27.328-17.984 53.696-31.296 78.656l-111.104-4.032c-13.12 16.96-28.288 32.448-45.184 46.272l7.296 111.168c-12.16 6.912-24.704 13.312-37.888 19.008-13.12 5.632-26.432 10.368-39.808 14.464l-75.776-81.6c-21.696 2.752-43.328 3.136-64.64 1.024l-73.344 83.584c-27.328-7.488-53.696-17.984-78.656-31.296l4.032-111.040c-16.96-13.12-32.448-28.224-46.272-45.12l-111.168 7.232c-6.912-12.16-13.312-24.704-19.008-37.888-5.632-13.12-10.368-26.432-14.464-39.808l81.6-75.84c-2.752-21.696-3.136-43.328-1.024-64.64l-83.584-73.28c7.488-27.264 17.984-53.696 31.296-78.656zM446.144 766.208c97.344-41.984 142.272-154.944 100.288-252.352s-154.944-142.272-252.352-100.288-142.272 154.944-100.288 252.352 154.944 142.272 252.352 100.288zM274.112 589.888c0-53.019 42.981-96 96-96s96 42.981 96 96c0 53.019-42.981 96-96 96s-96-42.981-96-96zM961.344 206.464l-26.496 9.408 12.096 25.472 27.84 58.56c-10.304 12.864-22.016 24.576-34.944 34.944l-84.032-39.936-9.408 26.496-21.76 61.248c-8.064 0.832-16.32 1.344-24.64 1.344s-16.576-0.512-24.704-1.408l-31.168-87.744-84.032 39.936c-12.864-10.304-24.576-22.016-34.944-34.944l39.936-84.032-87.744-31.168c-0.832-8.064-1.344-16.32-1.344-24.64s0.512-16.576 1.408-24.64l87.744-31.168-12.096-25.472-27.84-58.56c10.304-12.864 22.016-24.576 34.944-34.944l84.032 39.936 9.408-26.496 21.76-61.248c8.064-0.896 16.32-1.408 24.64-1.408s16.576 0.512 24.704 1.408l31.168 87.744 84.032-39.936c12.864 10.304 24.576 22.016 34.944 34.944l-39.936 84.032 87.744 31.168c0.832 8.064 1.344 16.32 1.344 24.64s-0.512 16.576-1.408 24.704l-61.248 21.76zM800 112c-26.496 0-48 21.504-48 48s21.504 48 48 48 48-21.504 48-48c0-26.496-21.504-48-48-48z"/>
<glyph unicode="" glyph-name="arrow_up_alt" data-tags="arrow_up_alt" d="M544 896c-265.088 0-480-214.912-480-480s214.912-480 480-480 480 214.912 480 480-214.912 480-480 480zM758.656 457.344c-12.48-12.48-32.768-12.48-45.248 0l-137.408 137.408v-498.752c0-17.664-14.336-32-32-32s-32 14.336-32 32v498.752l-137.344-137.408c-12.48-12.48-32.768-12.48-45.248 0s-12.48 32.768 0 45.248l192 192c0.064 0.128 0.128 0.128 0.192 0.192 2.88 2.816 6.336 5.184 10.112 6.72 7.808 3.264 16.64 3.264 24.448 0 3.968-1.6 7.488-3.904 10.496-6.848l192-192c12.48-12.544 12.48-32.768 0-45.312z"/>
<glyph unicode="" glyph-name="arrow_down_alt" data-tags="arrow_down_alt" d="M544 896c-265.088 0-480-214.912-480-480s214.912-480 480-480 480 214.912 480 480-214.912 480-480 480zM758.656 329.344l-192-192c-2.944-2.944-6.464-5.312-10.368-6.912-7.808-3.264-16.64-3.264-24.448 0-3.84 1.6-7.232 3.904-10.112 6.72-0.064 0.064-0.192 0.064-0.256 0.192l-192 192c-12.48 12.48-12.48 32.768 0 45.248s32.768 12.48 45.248 0l137.28-137.344v498.752c0 17.664 14.336 32 32 32s32-14.336 32-32v-498.752l137.344 137.344c12.48 12.48 32.768 12.48 45.248 0 12.544-12.48 12.544-32.704 0.064-45.248z"/>
<glyph unicode="" glyph-name="arrow_left_alt" data-tags="arrow_left_alt" d="M544 896c-265.088 0-480-214.912-480-480s214.912-480 480-480 480 214.912 480 480-214.912 480-480 480zM896 416c0-17.664-14.336-32-32-32h-498.752l137.344-137.344c12.48-12.48 12.48-32.768 0-45.248s-32.768-12.48-45.248 0l-192 192c-0.064 0.064-0.128 0.192-0.192 0.32-2.816 2.88-5.12 6.272-6.656 10.048-1.6 3.904-2.496 8-2.496 12.096 0 0.064 0 0.064 0 0.128v0c0 4.16 0.832 8.32 2.496 12.224 1.536 3.776 3.84 7.168 6.656 10.048 0.128 0.128 0.128 0.256 0.256 0.384l192 192c12.48 12.48 32.768 12.48 45.248 0s12.48-32.768 0-45.248l-137.408-137.408h498.752c17.664 0 32-14.336 32-32z"/>
<glyph unicode="" glyph-name="arrow_right_alt" data-tags="arrow_right_alt" d="M544 896c-265.088 0-480-214.912-480-480s214.912-480 480-480 480 214.912 480 480-214.912 480-480 480zM832 416c0-0.064 0-0.064 0-0.128 0-4.16-0.832-8.256-2.432-12.096-1.6-3.904-3.968-7.424-6.912-10.368l-192-192c-12.48-12.48-32.768-12.48-45.248 0s-12.48 32.768 0 45.248l137.344 137.344h-498.752c-17.664 0-32 14.336-32 32s14.336 32 32 32h498.752l-137.408 137.344c-12.48 12.48-12.48 32.768 0 45.248s32.768 12.48 45.248 0l192-192c2.944-2.944 5.312-6.464 6.912-10.368 1.664-3.904 2.496-8.064 2.496-12.224v0z"/>
<glyph unicode="" glyph-name="arrow_left-up_alt" data-tags="arrow_left-up_alt" d="M204.608 755.392c-187.456-187.456-187.456-491.392 0-678.848s491.392-187.456 678.848 0c187.456 187.456 187.456 491.392 0 678.848-187.52 187.456-491.392 187.456-678.848 0zM781.952 178.048c-12.48-12.48-32.768-12.48-45.248 0l-352.704 352.704v-194.304c0-17.664-14.336-32-32-32s-32 14.336-32 32v271.552c0 4.16 0.832 8.32 2.496 12.224 1.536 3.776 3.84 7.168 6.656 10.048 0.128 0.128 0.128 0.256 0.256 0.384 0.064 0.064 0.128 0.064 0.192 0.128 2.88 2.816 6.336 5.184 10.112 6.72 3.968 1.664 8.128 2.496 12.288 2.496h271.552c17.664 0 32-14.336 32-32s-14.336-32-32-32h-194.304l352.64-352.64c12.544-12.544 12.544-32.768 0.064-45.312z"/>
<glyph unicode="" glyph-name="arrow_right-up_alt" data-tags="arrow_right-up_alt" d="M204.608 755.392c-187.456-187.456-187.456-491.392 0-678.848s491.392-187.456 678.848 0c187.456 187.456 187.456 491.392 0 678.848-187.52 187.456-491.392 187.456-678.848 0zM768 608v-271.552c0-17.664-14.336-32-32-32s-32 14.336-32 32v194.304l-352.64-352.64c-12.48-12.48-32.768-12.48-45.248 0s-12.48 32.768 0 45.248l352.64 352.64h-194.304c-17.664 0-32 14.336-32 32s14.336 32 32 32h271.552c4.16 0 8.32-0.832 12.224-2.496 7.808-3.264 14.080-9.472 17.28-17.28 1.664-3.904 2.496-8.064 2.496-12.224v0z"/>
<glyph unicode="" glyph-name="arrow_right-down_alt" data-tags="arrow_right-down_alt" d="M204.608 755.392c-187.456-187.456-187.456-491.392 0-678.848s491.392-187.456 678.848 0c187.456 187.456 187.456 491.392 0 678.848-187.52 187.456-491.392 187.456-678.848 0zM768 224c0-0.064 0-0.064 0-0.128 0-4.16-0.832-8.256-2.432-12.096-3.264-7.808-9.472-14.080-17.28-17.28-3.968-1.664-8.128-2.496-12.288-2.496h-271.552c-17.664 0-32 14.336-32 32s14.336 32 32 32h194.304l-352.64 352.64c-12.48 12.48-12.48 32.768 0 45.248s32.768 12.48 45.248 0l352.64-352.64v194.304c0 17.664 14.336 32 32 32s32-14.336 32-32v-271.552z"/>
<glyph unicode="" glyph-name="arrow_left-down_alt" data-tags="arrow_left-down_alt" d="M204.608 755.392c-187.456-187.456-187.456-491.392 0-678.848s491.392-187.456 678.848 0c187.456 187.456 187.456 491.392 0 678.848-187.52 187.456-491.392 187.456-678.848 0zM781.952 608.64l-352.704-352.64h194.304c17.664 0 32-14.336 32-32s-14.336-32-32-32h-271.552c-4.16 0-8.32 0.832-12.224 2.496-3.84 1.6-7.232 3.904-10.112 6.72-0.064 0.064-0.192 0.064-0.256 0.192-0.128 0.128-0.128 0.256-0.256 0.384-2.816 2.88-5.12 6.272-6.656 10.048-1.6 3.84-2.496 7.936-2.496 12.032 0 0.064 0 0.064 0 0.128v271.552c0 17.664 14.336 32 32 32s32-14.336 32-32v-194.304l352.64 352.64c12.48 12.48 32.768 12.48 45.248 0s12.544-32.704 0.064-45.248z"/>
<glyph unicode="" glyph-name="arrow_condense_alt" data-tags="arrow_condense_alt" d="M960 960h-896c-35.328 0-64-28.672-64-64v-896c0-35.328 28.672-64 64-64h896c35.328 0 64 28.672 64 64v896c0 35.328-28.672 64-64 64zM448 352v-256c0-17.664-14.336-32-32-32s-32 14.336-32 32v178.752l-201.344-201.344c-12.48-12.48-32.768-12.48-45.248 0s-12.48 32.768 0 45.248l201.344 201.344h-178.752c-17.664 0-32 14.336-32 32s14.336 32 32 32h256c4.16 0 8.32-0.832 12.224-2.496 7.808-3.264 14.080-9.472 17.28-17.28 1.664-3.904 2.496-8.064 2.496-12.224v0zM864 576c17.664 0 32-14.336 32-32s-14.336-32-32-32h-256c-4.16 0-8.32 0.832-12.224 2.496-3.84 1.536-7.232 3.84-10.176 6.72-0.064 0.064-0.128 0.064-0.256 0.128-0.064 0.128-0.128 0.256-0.192 0.384-2.816 2.88-5.12 6.272-6.656 10.048-1.6 3.904-2.496 8-2.496 12.096 0 0.064 0 0.064 0 0.128v256c0 17.664 14.336 32 32 32s32-14.336 32-32v-178.752l201.344 201.344c12.48 12.48 32.768 12.48 45.248 0s12.48-32.768 0-45.248l-201.344-201.344h178.752z"/>
<glyph unicode="" glyph-name="arrow_expand_alt3" data-tags="arrow_expand_alt3" d="M960 960h-896c-35.328 0-64-28.672-64-64v-896c0-35.328 28.672-64 64-64h896c35.328 0 64 28.672 64 64v896c0 35.328-28.672 64-64 64zM416 128c17.664 0 32-14.336 32-32s-14.336-32-32-32h-256c-4.16 0-8.32 0.832-12.224 2.496-3.84 1.6-7.232 3.904-10.112 6.72-0.064 0.064-0.192 0.064-0.256 0.192-0.128 0.128-0.128 0.256-0.256 0.384-2.816 2.88-5.12 6.272-6.656 10.048-1.6 3.84-2.496 7.936-2.496 12.032 0 0.064 0 0.064 0 0.128v256c0 17.664 14.336 32 32 32s32-14.336 32-32v-178.752l201.344 201.344c12.48 12.48 32.768 12.48 45.248 0s12.48-32.768 0-45.248l-201.344-201.344h178.752zM896 800v-256c0-17.664-14.336-32-32-32s-32 14.336-32 32v178.752l-201.344-201.408c-12.48-12.48-32.768-12.48-45.248 0s-12.48 32.768 0 45.248l201.344 201.408h-178.752c-17.664 0-32 14.336-32 32s14.336 32 32 32h256c4.16 0 8.32-0.832 12.224-2.496 7.808-3.264 14.080-9.472 17.28-17.28 1.664-3.904 2.496-8.064 2.496-12.224v0z"/>
<glyph unicode="" glyph-name="arrow_carrot_up_alt" data-tags="arrow_carrot_up_alt" d="M544-64c265.088 0 480 214.912 480 480s-214.912 480-480 480-480-214.912-480-480 214.912-480 480-480zM313.728 358.848l207.552 207.552c6.272 6.272 14.464 9.344 22.72 9.344s16.448-3.072 22.72-9.344l207.552-207.552c12.48-12.48 12.48-32.768 0-45.248s-32.768-12.48-45.248 0l-185.024 185.024-185.024-185.024c-12.48-12.48-32.768-12.48-45.248 0s-12.48 32.768 0 45.248z"/>
<glyph unicode="" glyph-name="arrow_carrot-down_alt" data-tags="arrow_carrot-down_alt" d="M544 896c-265.088 0-480-214.912-480-480s214.912-480 480-480 480 214.912 480 480-214.912 480-480 480zM774.272 473.152l-207.552-207.552c-6.272-6.272-14.528-9.408-22.72-9.344-8.256 0-16.448 3.072-22.72 9.344l-207.552 207.552c-12.48 12.48-12.48 32.768 0 45.248s32.768 12.48 45.248 0l185.024-185.024 185.024 185.024c12.48 12.48 32.768 12.48 45.248 0s12.48-32.768 0-45.248z"/>
<glyph unicode="" glyph-name="arrow_carrot-left_alt" data-tags="arrow_carrot-left_alt" d="M544 896c-265.088 0-480-214.912-480-480s214.912-480 480-480 480 214.912 480 480-214.912 480-480 480zM646.4 230.976c12.48-12.48 12.48-32.768 0-45.248s-32.768-12.48-45.248 0l-207.552 207.552c-6.272 6.272-9.344 14.464-9.344 22.72s3.072 16.448 9.344 22.72l207.552 207.552c12.48 12.48 32.768 12.48 45.248 0s12.48-32.768 0-45.248l-185.024-185.024 185.024-185.024z"/>
<glyph unicode="" glyph-name="arrow_carrot-right_alt" data-tags="arrow_carrot-right_alt" d="M544 896c-265.088 0-480-214.912-480-480s214.912-480 480-480 480 214.912 480 480-214.912 480-480 480zM694.4 393.28l-207.552-207.552c-12.48-12.48-32.768-12.48-45.248 0s-12.48 32.768 0 45.248l185.024 185.024-185.024 185.024c-12.48 12.48-12.48 32.768 0 45.248s32.768 12.48 45.248 0l207.552-207.552c6.272-6.272 9.408-14.528 9.344-22.72 0-8.256-3.072-16.448-9.344-22.72z"/>
<glyph unicode="" glyph-name="arrow_carrot-2up_alt" data-tags="arrow_carrot-2up_alt" d="M544 896c-265.088 0-480-214.912-480-480s214.912-480 480-480 480 214.912 480 480-214.912 480-480 480zM782.464 198.144c-12.544-12.544-32.96-12.544-45.504 0l-191.744 169.6-191.744-169.6c-12.544-12.544-32.96-12.544-45.504 0s-12.544 32.96 0 45.504l214.080 189.376c6.4 6.4 14.784 9.472 23.168 9.344 8.384 0.192 16.768-2.88 23.168-9.28l214.080-189.376c12.608-12.608 12.608-32.96 0-45.568zM782.464 427.648c-12.544-12.544-32.96-12.544-45.504 0l-191.808 169.664-191.744-169.664c-12.544-12.544-32.96-12.544-45.504 0s-12.544 32.96 0 45.504l214.080 189.376c6.4 6.4 14.784 9.472 23.168 9.344 8.448 0.192 16.832-2.88 23.232-9.28l214.080-189.376c12.608-12.608 12.608-32.96 0-45.568z"/>
<glyph unicode="" glyph-name="arrow_carrot-2dwnn_alt" data-tags="arrow_carrot-2dwnn_alt" d="M546.112 891.712c-263.936 0-477.888-213.952-477.888-477.888s214.016-477.824 477.888-477.824 477.888 213.952 477.888 477.888-213.952 477.824-477.888 477.824zM780.096 358.784l-214.080-189.376c-6.4-6.4-14.784-9.472-23.168-9.344-8.448-0.064-16.832 2.944-23.232 9.344l-214.080 189.376c-12.544 12.544-12.544 32.96 0 45.504s32.96 12.544 45.504 0l191.744-169.6 191.744 169.6c12.544 12.544 32.96 12.544 45.504 0s12.672-32.896 0.064-45.504zM780.096 588.288l-214.080-189.376c-6.4-6.4-14.784-9.472-23.168-9.344-8.448-0.064-16.832 2.944-23.232 9.344l-214.080 189.376c-12.544 12.544-12.544 32.96 0 45.504 12.544 12.608 32.96 12.608 45.504 0.064l191.744-169.6 191.744 169.6c12.544 12.544 32.96 12.544 45.504 0s12.672-32.96 0.064-45.568z"/>
<glyph unicode="" glyph-name="arrow_carrot-2left_alt" data-tags="arrow_carrot-2left_alt" d="M546.304 891.456c-263.808 0-477.696-213.888-477.696-477.696-0.064-263.872 213.824-477.76 477.696-477.76 263.808 0 477.696 213.888 477.696 477.696 0 263.872-213.888 477.76-477.696 477.76zM532.352 179.904c-12.544-12.544-32.96-12.544-45.504 0l-189.44 214.080c-6.4 6.4-9.472 14.848-9.344 23.232-0.064 8.384 2.944 16.768 9.344 23.168l189.376 214.080c12.544 12.544 32.96 12.544 45.504 0s12.544-32.96 0-45.504l-169.6-191.744 169.6-191.744c12.608-12.608 12.608-33.024 0.064-45.568zM761.856 225.408c12.544-12.544 12.544-32.96 0-45.504s-32.96-12.544-45.504 0l-189.44 214.080c-6.4 6.4-9.472 14.848-9.344 23.232-0.064 8.384 2.944 16.768 9.344 23.168l189.376 214.080c12.544 12.544 32.96 12.544 45.504 0s12.544-32.96 0-45.504l-169.6-191.744 169.664-191.808z"/>
<glyph unicode="" glyph-name="arrow_carrot-2right_alt" data-tags="arrow_carrot-2right_alt" d="M546.304 891.392c-263.808 0-477.696-213.888-477.696-477.696s213.888-477.696 477.696-477.696 477.696 213.888 477.696 477.696-213.888 477.696-477.696 477.696zM326.144 177.536c-12.544 12.544-12.544 32.96 0 45.504l169.6 191.744-169.6 191.744c-12.544 12.608-12.544 33.024 0 45.568s32.96 12.544 45.504 0l189.376-214.080c6.4-6.4 9.472-14.784 9.344-23.168 0.192-8.448-2.88-16.832-9.28-23.232l-189.376-214.080c-12.608-12.608-32.96-12.608-45.568 0zM790.592 391.616l-189.376-214.080c-12.544-12.544-32.96-12.544-45.504 0s-12.544 32.96 0 45.504l169.6 191.744-169.6 191.744c-12.544 12.544-12.544 32.96 0 45.504s32.96 12.544 45.504 0l189.376-214.080c6.4-6.4 9.472-14.784 9.344-23.168 0.064-8.384-2.944-16.768-9.344-23.168z"/>
<glyph unicode="" glyph-name="arrow_triangle-up_alt" data-tags="arrow_triangle-up_alt" d="M544 896c-265.088 0-480-214.912-480-480s214.912-480 480-480 480 214.912 480 480-214.912 480-480 480zM759.168 331.136l-0.128 0.128c-5.056-6.848-12.16-11.264-20.16-11.264h-391.040c-7.872 0-14.912 4.16-19.968 10.816-0.064 0.128-0.192 0.192-0.32 0.32-10.88 13.888-10.88 36.416 0 50.304l195.52 246.848c0.256 0.384 0.384 0.896 0.704 1.28 10.88 13.888 28.608 13.888 39.488 0l195.968-248.128c10.88-13.888 10.88-36.416-0.064-50.304z"/>
<glyph unicode="" glyph-name="arrow_triangle-down_alt" data-tags="arrow_triangle-down_alt" d="M544 896c-265.088 0-480-214.912-480-480s214.912-480 480-480 480 214.912 480 480-214.912 480-480 480zM759.168 450.56l-195.52-246.848c-0.256-0.384-0.384-0.896-0.704-1.28-10.88-13.888-28.608-13.888-39.488 0l-195.904 248.128c-10.88 13.888-10.88 36.416 0 50.304l0.128-0.128c5.056 6.848 12.16 11.264 20.16 11.264h391.040c7.872 0 14.912-4.16 19.968-10.816 0.128-0.128 0.256-0.128 0.32-0.256 10.944-13.952 10.944-36.48 0-50.368z"/>
<glyph unicode="" glyph-name="arrow_triangle-left_alt" data-tags="arrow_triangle-left_alt" d="M544 896c-265.088 0-480-214.912-480-480s214.912-480 480-480 480 214.912 480 480-214.912 480-480 480zM640 221.12c0-7.872-4.16-14.912-10.816-19.968-0.128-0.128-0.128-0.256-0.256-0.32-13.888-10.88-36.416-10.88-50.304 0l-246.912 195.456c-0.384 0.32-0.896 0.384-1.28 0.704-13.888 10.88-13.888 28.608 0 39.488l248.128 195.968c13.888 10.88 36.416 10.88 50.304 0l-0.128-0.128c6.848-5.056 11.264-12.16 11.264-20.16v-391.040z"/>
<glyph unicode="" glyph-name="arrow_triangle-right_alt" data-tags="arrow_triangle-right_alt" d="M544 896c-265.088 0-480-214.912-480-480s214.912-480 480-480 480 214.912 480 480-214.912 480-480 480zM757.568 396.8l-248.128-195.968c-13.888-10.88-36.416-10.88-50.304 0l0.128 0.128c-6.848 5.056-11.264 12.16-11.264 20.16v391.040c0 7.872 4.16 14.912 10.816 19.968 0.128 0.064 0.192 0.192 0.32 0.32 13.888 10.88 36.416 10.88 50.304 0l246.848-195.52c0.384-0.32 0.896-0.384 1.28-0.704 13.888-10.88 13.888-28.544 0-39.424z"/>
<glyph unicode="" glyph-name="icon_minus_alt" data-tags="icon_minus_alt" d="M544 896c-265.088 0-480-214.912-480-480s214.912-480 480-480 480 214.912 480 480-214.912 480-480 480zM800 384h-512c-17.664 0-32 14.336-32 32s14.336 32 32 32h512c17.664 0 32-14.336 32-32s-14.336-32-32-32z"/>
<glyph unicode="" glyph-name="plus-circle" data-tags="icon_plus_alt" d="M544 896c-265.088 0-480-214.912-480-480s214.912-480 480-480 480 214.912 480 480-214.912 480-480 480zM800 384h-224v-224c0-17.664-14.336-32-32-32s-32 14.336-32 32v224h-224c-17.664 0-32 14.336-32 32s14.336 32 32 32h224v224c0 17.664 14.336 32 32 32s32-14.336 32-32v-224h224c17.664 0 32-14.336 32-32s-14.336-32-32-32z"/>
<glyph unicode="" glyph-name="icon_close_alt" data-tags="icon_close_alt" d="M544 896c-265.088 0-480-214.912-480-480s214.912-480 480-480 480 214.912 480 480-214.912 480-480 480zM766.4 593.152l-178.368-178.368 157.824-175.936c12.48-12.48 12.48-32.768 0-45.248s-32.768-12.48-45.248 0l-157.824 175.936-175.936-175.936c-12.48-12.48-32.768-12.48-45.248 0s-12.48 32.768 0 45.248l178.368 178.368-157.824 175.936c-12.48 12.48-12.48 32.768 0 45.248s32.768 12.48 45.248 0l157.824-175.936 175.936 175.936c12.48 12.48 32.768 12.48 45.248 0s12.48-32.768 0-45.248z"/>
<glyph unicode="" glyph-name="icon_check_alt" data-tags="icon_check_alt" d="M514.688 960c-282.752 0-512-229.248-512-512s229.248-512 512-512 512 229.248 512 512-229.248 512-512 512zM751.872 589.632l-245.248-374.848c-0.064-0.064-0.192-0.128-0.192-0.192-1.28-1.92-1.984-4.096-3.584-5.888-2.24-2.432-5.12-3.712-7.68-5.568-0.64-0.448-1.28-0.96-1.984-1.408-3.968-2.496-8.064-4.16-12.544-5.248-1.472-0.384-2.816-0.768-4.352-1.024-3.648-0.512-7.104-0.512-10.752-0.128-2.56 0.192-4.992 0.512-7.488 1.152-2.56 0.704-4.928 1.792-7.36 2.944-2.048 0.96-4.224 1.216-6.144 2.432-1.408 0.896-2.176 2.304-3.392 3.392-0.512 0.448-1.152 0.576-1.664 1.024l-142.784 132.032c-18.176 16.832-19.264 45.184-2.496 63.296s45.12 19.264 63.296 2.496l103.36-95.616 216 330.176c13.568 20.672 41.28 26.496 62.016 12.992 20.736-13.568 26.56-41.344 12.992-62.016z"/>
<glyph unicode="" glyph-name="icon_zoom-out" data-tags="icon_zoom-out" d="M608 960c-229.76 0-416-186.24-416-416 0-98.88 34.624-189.504 92.224-260.928l-271.168-271.168c-17.344-17.344-17.344-45.504 0-62.848s45.504-17.344 62.848 0l271.168 271.168c71.424-57.6 162.048-92.224 260.928-92.224 229.76 0 416 186.24 416 416s-186.24 416-416 416zM800 512h-384c-17.664 0-32 14.336-32 32s14.336 32 32 32h384c17.664 0 32-14.336 32-32s-14.336-32-32-32z"/>
<glyph unicode="" glyph-name="icon_zoom-in" data-tags="icon_zoom-in" d="M608 960c-229.76 0-416-186.24-416-416 0-98.88 34.624-189.504 92.224-260.928l-271.168-271.168c-17.344-17.344-17.344-45.504 0-62.848s45.504-17.344 62.848 0l271.168 271.168c71.424-57.6 162.048-92.224 260.928-92.224 229.76 0 416 186.24 416 416s-186.24 416-416 416zM800 512h-160v-160c0-17.664-14.336-32-32-32s-32 14.336-32 32v160h-160c-17.664 0-32 14.336-32 32s14.336 32 32 32h160v160c0 17.664 14.336 32 32 32s32-14.336 32-32v-160h160c17.664 0 32-14.336 32-32s-14.336-32-32-32z"/>
<glyph unicode="" glyph-name="icon_stop_alt" data-tags="icon_stop_alt" d="M512 960c-282.752 0-512-229.248-512-512s229.248-512 512-512 512 229.248 512 512-229.248 512-512 512zM704 320c0-35.328-28.672-64-64-64h-256c-35.328 0-64 28.672-64 64v256c0 35.328 28.672 64 64 64h256c35.328 0 64-28.672 64-64v-256z"/>
<glyph unicode="" glyph-name="icon_menu-square_alt" data-tags="icon_menu-square_alt" d="M960 896h-832c-35.328 0-64-28.672-64-64v-832c0-35.328 28.672-64 64-64h832c35.328 0 64 28.672 64 64v832c0 35.328-28.672 64-64 64zM800 192h-512c-17.664 0-32 14.336-32 32s14.336 32 32 32h512c17.664 0 32-14.336 32-32s-14.336-32-32-32zM800 384h-512c-17.664 0-32 14.336-32 32s14.336 32 32 32h512c17.664 0 32-14.336 32-32s-14.336-32-32-32zM800 576h-512c-17.664 0-32 14.336-32 32s14.336 32 32 32h512c17.664 0 32-14.336 32-32s-14.336-32-32-32z"/>
<glyph unicode="" glyph-name="icon_menu-circle_alt" data-tags="icon_menu-circle_alt" d="M544 896c-265.088 0-480-214.912-480-480s214.912-480 480-480 480 214.912 480 480-214.912 480-480 480zM800 192h-512c-17.664 0-32 14.336-32 32s14.336 32 32 32h512c17.664 0 32-14.336 32-32s-14.336-32-32-32zM800 384h-512c-17.664 0-32 14.336-32 32s14.336 32 32 32h512c17.664 0 32-14.336 32-32s-14.336-32-32-32zM800 576h-512c-17.664 0-32 14.336-32 32s14.336 32 32 32h512c17.664 0 32-14.336 32-32s-14.336-32-32-32z"/>
<glyph unicode="" glyph-name="icon_document" data-tags="icon_document" d="M128-64h770.688c35.328 0 64 28.672 64 64v896c0 35.328-28.672 64-64 64h-770.688c-35.328 0-64-28.672-64-64v-896c0-35.328 28.672-64 64-64zM480 768h258.688c17.664 0 32-14.336 32-32s-14.336-32-32-32h-258.688c-17.664 0-32 14.336-32 32s14.336 32 32 32zM288 576h450.688c17.664 0 32-14.336 32-32s-14.336-32-32-32h-450.688c-17.664 0-32 14.336-32 32s14.336 32 32 32zM288 384h450.688c17.664 0 32-14.336 32-32s-14.336-32-32-32h-450.688c-17.664 0-32 14.336-32 32s14.336 32 32 32zM288 192h450.688c17.664 0 32-14.336 32-32s-14.336-32-32-32h-450.688c-17.664 0-32 14.336-32 32s14.336 32 32 32z"/>
<glyph unicode="" glyph-name="icon_documents" data-tags="icon_documents" d="M128 64h64v-64c0-35.328 28.672-64 64-64h640c35.328 0 64 28.672 64 64v768c0 35.328-28.672 64-64 64h-64v64c0 35.328-28.672 64-64 64h-640c-35.328 0-64-28.672-64-64v-768c0-35.328 28.672-64 64-64zM896 768v-768h-640v64h512c35.328 0 64 28.672 64 64v640h64zM672 832c17.664 0 32-14.336 32-32s-14.336-32-32-32h-258.688c-17.664 0-32 14.336-32 32s14.336 32 32 32h258.688zM221.312 640h450.688c17.664 0 32-14.336 32-32s-14.336-32-32-32h-450.688c-17.664 0-32 14.336-32 32s14.336 32 32 32zM221.312 448h450.688c17.664 0 32-14.336 32-32s-14.336-32-32-32h-450.688c-17.664 0-32 14.336-32 32s14.336 32 32 32zM221.312 256h450.688c17.664 0 32-14.336 32-32s-14.336-32-32-32h-450.688c-17.664 0-32 14.336-32 32s14.336 32 32 32z"/>
<glyph unicode="" glyph-name="icon_pencil_alt" data-tags="icon_pencil_alt" d="M960 960h-896c-35.328 0-64-28.672-64-64v-896c0-35.328 28.672-64 64-64h896c35.328 0 64 28.672 64 64v896c0 35.328-28.672 64-64 64zM178.368 666.496c-31.808 31.808-31.808 83.328 0 115.136s83.328 31.808 115.136 0l84.736-84.736-115.136-115.136-84.736 84.736zM659.84 185.024l-328.96 328.96 115.136 115.136 328.96-328.96 57.024-172.16-172.16 57.024z"/>
<glyph unicode="" glyph-name="icon_folder" data-tags="icon_folder" d="M960 896h-320c-35.328 0-64-28.672-64-64 0 0-8.32-58.688-64-64h-448c-35.328 0-64-27.648-64-62.976v-577.024c0-35.328 28.672-64 64-64h896c35.328 0 64 28.672 64 64v704c0 35.328-28.672 64-64 64z"/>
<glyph unicode="" glyph-name="icon_folder-open" data-tags="icon_folder-open" d="M960 896h-320c-35.328 0-64-28.672-64-64 0 0-8.32-58.688-64-64h-448c-35.328 0-64-27.648-64-62.976v-65.024h1024v192c0 35.328-28.672 64-64 64zM0 64c0-35.328 28.672-64 64-64h896c35.328 0 64 28.672 64 64v512h-1024v-512z"/>
<glyph unicode="" glyph-name="icon_folder-add" data-tags="icon_folder-add" d="M896 832h-256c-35.328 0-64-28.672-64-64 0 0-8.32-58.688-64-64h-448c-35.328 0-64-28.672-64-64v-576c0-35.328 28.672-64 64-64h832c35.328 0 64 28.672 64 64v704c0 35.328-28.672 64-64 64zM672 320h-160v-160c0-17.664-14.336-32-32-32s-32 14.336-32 32v160h-160c-17.664 0-32 14.336-32 32s14.336 32 32 32h160v160c0 17.664 14.336 32 32 32s32-14.336 32-32v-160h160c17.664 0 32-14.336 32-32s-14.336-32-32-32z"/>
<glyph unicode="" glyph-name="icon_folder_upload" data-tags="icon_folder_upload" d="M960 832h-320c-35.328 0-64-28.672-64-64 0 0-8.32-58.688-64-64h-448c-35.328 0-64-27.648-64-62.976v-577.024c0-35.328 28.672-64 64-64h384.192v320h-135.808l199.808 256 199.808-256h-135.808v-320h383.808c35.328 0 64 28.672 64 64v704c0 35.328-28.672 64-64 64z"/>
<glyph unicode="" glyph-name="icon_folder_download" data-tags="icon_folder_download" d="M960 832h-320c-35.328 0-64-28.672-64-64 0 0-8.32-58.688-64-64h-448c-35.328 0-64-27.648-64-62.976v-577.024c0-35.328 28.672-64 64-64h896c35.328 0 64 28.672 64 64v704c0 35.328-28.672 64-64 64zM512.192 0.384l-199.808 256h135.808v256c0 35.328 28.672 64 64 64s64-28.672 64-64v-256h135.808l-199.808-256z"/>
<glyph unicode="" glyph-name="icon_info" data-tags="icon_info" d="M512 960c-282.752 0-512-229.248-512-512s229.248-512 512-512 512 229.248 512 512-229.248 512-512 512zM448 512c0 35.328 28.672 64 64 64s64-28.672 64-64v-320c0-35.328-28.672-64-64-64s-64 28.672-64 64v320zM512 638.976c-35.328 0-64 28.672-64 64s28.672 64 64 64 64-28.672 64-64c0-35.328-28.672-64-64-64z"/>
<glyph unicode="" glyph-name="icon_error-circle" data-tags="icon_error-circle" d="M512-64c282.752 0 512 229.248 512 512s-229.248 512-512 512-512-229.248-512-512 229.248-512 512-512zM576 384c0-35.328-28.672-64-64-64s-64 28.672-64 64v320c0 35.328 28.672 64 64 64s64-28.672 64-64v-320zM512 257.024c35.328 0 64-28.672 64-64s-28.672-64-64-64-64 28.672-64 64c0 35.328 28.672 64 64 64z"/>
<glyph unicode="" glyph-name="icon_error-oct" data-tags="icon_error-oct" d="M742.848 941.248c-12.032 12.032-28.288 18.752-45.312 18.752h-371.072c-16.96 0-33.28-6.72-45.248-18.752l-262.4-262.464c-12.096-11.968-18.816-28.224-18.816-45.248v-371.136c0-16.96 6.72-33.28 18.752-45.248l262.4-262.464c12.032-11.968 28.288-18.688 45.312-18.688h371.136c16.96 0 33.28 6.72 45.248 18.752l262.4 262.464c12.032 11.968 18.752 28.224 18.752 45.248v371.072c0 16.96-6.72 33.28-18.752 45.248l-262.4 262.464zM512 320c-35.328 0-64 28.672-64 64v384c0 35.328 28.672 64 64 64s64-28.672 64-64v-384c0-35.328-28.672-64-64-64zM576 128c0-35.328-28.672-64-64-64s-64 28.672-64 64c0 35.328 28.672 64 64 64s64-28.672 64-64z"/>
<glyph unicode="" glyph-name="icon_error-triangle" data-tags="icon_error-triangle" d="M65.984 0h889.984c22.464 0 43.328 11.776 54.912 31.104 11.584 19.264 12.16 43.2 1.6 63.040l-444.032 832c-11.072 20.8-32.768 33.856-56.384 33.856h-0.064c-23.616 0-45.248-12.992-56.384-33.792l-446.016-832c-10.624-19.84-10.048-43.776 1.472-63.104 11.584-19.264 32.448-31.104 54.912-31.104zM512 256c35.328 0 64-28.672 64-64s-28.672-64-64-64-64 28.672-64 64c0 35.328 28.672 64 64 64zM448 382.976v256c0 35.328 28.672 64 64 64s64-28.672 64-64v-256c0-35.328-28.672-64-64-64s-64 28.672-64 64z"/>
<glyph unicode="" glyph-name="icon_question_alt" data-tags="icon_question_alt" d="M512-64c282.752 0 512 229.248 512 512s-229.248 512-512 512-512-229.248-512-512 229.248-512 512-512zM512 832c127.424 0 256-72.96 256-236.032 0-94.912-47.040-169.024-139.776-220.032-26.88-14.784-52.224-44.032-52.224-55.936 0-35.328-28.672-64-64-64s-64 28.672-64 64c0 81.216 74.496 143.872 118.528 168.064 64.704 35.712 73.472 74.624 73.472 107.904 0 94.016-80.192 108.032-128 108.032-61.632 0-128-40.448-128-129.344 0-35.328-28.672-64-64-64s-64 28.672-64 64c0 167.168 131.904 257.344 256 257.344zM512 61.184c-36.416 0-65.92 29.504-65.92 65.92s29.504 65.92 65.92 65.92 65.92-29.504 65.92-65.92-29.504-65.92-65.92-65.92z"/>
<glyph unicode="" glyph-name="icon_comment" data-tags="icon_comment" d="M162.496 176.576c-18.752-48.448-50.56-111.808-104.512-176.576 102.336 0 233.984 13.44 335.424 75.648 38.144-7.36 77.696-11.648 118.592-11.648 282.752 0 512 186.24 512 416s-229.248 416-512 416-512-186.24-512-416c0-119.808 62.72-227.52 162.496-303.424z"/>
<glyph unicode="" glyph-name="icon_chat" data-tags="icon_chat" d="M893.12 582.72c5.632-25.344 8.896-51.392 8.896-78.144 0-206.592-175.36-378.816-406.272-415.808 48.832-19.712 103.552-31.232 161.856-31.232 54.976 0 106.88 10.112 153.728 27.712 59.328-20.224 124.096-25.472 177.664-25.472-27.84 33.408-47.168 66.176-60.992 94.976 59.392 52.992 96 123.2 96 200.512 0 91.392-51.008 172.864-130.88 227.456zM806.016 504.576c0 180.8-180.416 327.424-403.008 327.424s-403.008-146.624-403.008-327.424c0-94.336 49.344-179.072 127.936-238.848-14.784-38.144-39.808-88-82.24-139.008 80.512 0 184.192 10.56 264 59.584 30.016-5.824 61.184-9.216 93.312-9.216 222.592 0.064 403.008 146.624 403.008 327.488z"/>
<glyph unicode="" glyph-name="icon_vol-mute" data-tags="icon_vol-mute" d="M64 183.872h146.88c11.584-11.52 278.464-236.16 278.464-236.16 16.064-9.728 29.696-12.544 41.344-11.456 23.68 2.24 40.32 22.080 45.376 43.008 0.256 2.048 0.256 935.424-0.064 937.472-4.992 20.992-21.696 40.832-45.312 43.072-11.648 1.088-25.28-1.728-41.344-11.456 0 0-266.88-232.832-278.464-244.352h-146.88c-35.328 0-64-28.672-64-64v-392.128c0-35.392 28.672-64 64-64zM1012.544 613.696c-15.232 15.232-40 15.232-55.232 0l-110.464-110.464-110.464 110.464c-15.232 15.232-40 15.232-55.232 0s-15.232-40 0-55.232l110.464-110.464-110.464-110.464c-15.232-15.232-15.232-40 0-55.232s40-15.232 55.232 0l110.464 110.464 110.464-110.464c15.232-15.232 40-15.232 55.232 0s15.232 40 0 55.232l-110.464 110.464 110.464 110.464c15.296 15.232 15.296 40 0 55.232z"/>
<glyph unicode="" glyph-name="icon_volume-low" data-tags="icon_volume-low" d="M658.688 959.808c-11.648 1.088-25.28-1.728-41.344-11.456 0 0-266.88-232.832-278.464-244.352h-146.88c-35.328 0-64-28.672-64-64v-392.128c0-35.328 28.672-64 64-64h146.88c11.584-11.52 278.464-236.16 278.464-236.16 16.064-9.728 29.696-12.544 41.344-11.456 23.68 2.24 40.32 22.080 45.376 43.008 0.32 2.048 0.32 935.488 0 937.472-5.056 20.992-21.76 40.832-45.376 43.072zM802.624 336.192c-15.808-8-22.144-27.2-14.208-43.008 5.632-11.136 16.896-17.6 28.544-17.6 4.864 0 9.728 1.088 14.4 3.392 64.704 32.64 104.896 97.344 104.896 169.024s-40.192 136.384-104.896 169.024c-15.808 8-35.008 1.6-42.944-14.208s-1.6-35.008 14.208-43.008c42.944-21.632 69.632-64.448 69.632-111.808s-26.688-90.176-69.632-111.808z"/>
<glyph unicode="" glyph-name="icon_volume-high" data-tags="icon_volume-high" d="M64 183.872h146.88c11.584-11.52 278.464-236.16 278.464-236.16 16.064-9.728 29.696-12.544 41.344-11.456 23.68 2.24 40.32 22.080 45.376 43.008 0.256 2.048 0.256 935.424-0.064 937.472-4.992 20.992-21.696 40.832-45.312 43.072-11.648 1.088-25.28-1.728-41.344-11.456 0 0-266.88-232.832-278.464-244.352h-146.88c-35.328 0-64-28.672-64-64v-392.128c0-35.392 28.672-64 64-64zM674.624 336.192c-15.808-8-22.144-27.2-14.208-43.008 5.632-11.136 16.896-17.6 28.544-17.6 4.864 0 9.728 1.088 14.4 3.392 64.704 32.64 104.896 97.344 104.896 169.024s-40.192 136.384-104.896 169.024c-15.808 8-34.944 1.6-42.944-14.208-7.936-15.808-1.6-35.008 14.208-43.008 42.944-21.632 69.632-64.448 69.632-111.808s-26.688-90.176-69.632-111.808zM630.592 80.704c3.008-15.296 16.384-25.856 31.36-25.856 2.048 0 4.096 0.192 6.208 0.576 187.648 36.608 323.84 201.728 323.84 392.576s-136.192 355.968-323.904 392.576c-17.088 3.456-34.176-7.936-37.504-25.28-3.392-17.344 7.936-34.176 25.28-37.568 157.696-30.72 272.128-169.408 272.128-329.728s-114.432-299.008-272.128-329.728c-17.344-3.392-28.672-20.224-25.28-37.568z"/>
<glyph unicode="" glyph-name="icon_quotations_alt" data-tags="icon_quotations_alt" d="M512 960c-282.752 0-512-229.248-512-512s229.248-512 512-512 512 229.248 512 512-229.248 512-512 512zM768.832 457.344c-3.968-65.664-33.6-163.968-152.192-259.648-5.696-4.544-12.352-6.784-19.008-6.784-9.28 0-18.432 4.288-24.512 12.48-10.496 14.080-8.064 34.304 5.504 45.184 96.576 77.888 123.008 154.176 127.68 206.528-13.632-7.936-29.056-12.8-45.76-12.8-52.096 0-94.272 43.84-94.272 97.92s42.176 97.92 94.272 97.92c11.776 0 22.592-3.072 32.896-7.232l-0.384 0.768c0 0 4.544-1.664 10.88-5.184 0.32-0.192 0.64-0.256 0.96-0.384 0.192-0.128 0.32-0.256 0.512-0.384 4.352-2.496 9.344-5.824 14.912-10.56 2.368-2.048 4.352-4.416 6.528-6.656 23.232-23.104 48.704-67.2 41.984-151.168zM350.208 442.304c-52.096 0-94.272 43.84-94.272 97.92s42.24 97.92 94.272 97.92c11.776 0 22.592-3.072 32.896-7.232l-0.32 0.768c0 0 4.544-1.664 10.88-5.184 0.32-0.192 0.64-0.256 0.96-0.384 0.192-0.128 0.32-0.256 0.512-0.384 4.352-2.496 9.344-5.824 14.912-10.56 2.368-2.048 4.352-4.416 6.528-6.656 23.232-23.104 48.768-67.2 41.984-151.232-3.968-65.664-33.6-163.968-152.192-259.648-5.696-4.544-12.352-6.784-19.008-6.784-9.28 0-18.432 4.288-24.512 12.48-10.496 14.080-8.064 34.304 5.504 45.184 96.576 77.888 123.008 154.176 127.68 206.528-13.696-7.808-29.12-12.736-45.824-12.736z"/>
<glyph unicode="" glyph-name="icon_clock" data-tags="icon_clock" d="M544 896c-265.097 0-480-214.903-480-480s214.903-480 480-480c265.097 0 480 214.903 480 480v0c0 265.097-214.903 480-480 480v0zM800 384h-256c-17.673 0-32 14.327-32 32v0 320c0 17.673 14.327 32 32 32s32-14.327 32-32v0-288h224c17.673 0 32-14.327 32-32s-14.327-32-32-32v0z"/>
<glyph unicode="" glyph-name="icon_lock" data-tags="icon_lock" d="M512 960c-179.456 0-324.928-145.472-324.928-324.928v-59.072h-59.072c-35.328 0-64-28.672-64-64v-512c0-35.328 28.672-64 64-64h768c35.328 0 64 28.672 64 64v512c0 35.328-28.672 64-64 64h-59.072v59.072c0 179.456-145.472 324.928-324.928 324.928zM315.072 635.072c0 108.608 88.32 196.928 196.928 196.928s196.928-88.32 196.928-196.928v-59.072h-393.856v59.072zM512 128c-70.72 0-128 57.28-128 128s57.28 128 128 128 128-57.28 128-128c0-70.72-57.28-128-128-128z"/>
<glyph unicode="" glyph-name="icon_lock-open" data-tags="icon_lock-open" d="M896 576h-580.928v59.072c0 108.608 88.32 196.928 196.928 196.928 71.552 0 133.824-38.656 168.256-95.936 0.32 0.384 0.896 0.576 1.28 0.96 11.584-16.512 29.824-28.032 51.52-28.032 35.328 0 64 28.672 64 64 0 8.64-1.792 16.896-4.928 24.448-0.256 0.448-0.448 0.96-0.704 1.408-2.816 6.4-6.848 12.032-11.52 17.088-58.24 86.464-155.776 144.064-267.904 144.064-179.456 0-324.928-145.472-324.928-324.928v-59.072h-59.072c-35.328 0-64-28.672-64-64v-512c0-35.328 28.672-64 64-64h768c35.328 0 64 28.672 64 64v512c0 35.328-28.672 64-64 64zM512 128c-70.72 0-128 57.28-128 128s57.28 128 128 128 128-57.28 128-128-57.28-128-128-128z"/>
<glyph unicode="" glyph-name="icon_key" data-tags="icon_key" d="M992 960h-128c-7.744 0-15.232-2.816-21.12-7.936l-441.728-387.264c-22.848 4.8-58.176 11.2-81.152 11.2-176.448 0-320-143.552-320-320s143.552-320 320-320 320 143.552 320 320c0 52.416-9.984 87.552-21.312 116.736l108.928 36.992c13.248 4.48 22.016 17.088 21.696 31.040l-2.688 121.472 122.24 8.512c16.384 1.152 29.248 14.528 29.76 30.912l4.544 145.856 95.744 21.248c14.656 3.2 25.088 16.256 25.088 31.232v128c0 17.664-14.336 32-32 32zM224 256c38.4 0 71.552-22.592 86.912-55.168 5.824-12.416 9.088-26.24 9.088-40.832 0-52.992-43.008-96-96-96s-96 43.008-96 96 43.008 96 96 96z"/>
<glyph unicode="" glyph-name="icon_cloud" data-tags="icon_cloud" d="M832 448c-2.24 0-4.352-0.576-6.528-0.64 4.288 20.864 6.528 42.496 6.528 64.64 0 176.704-143.296 320-320 320s-320-143.296-320-320c0-1.088 0.32-2.112 0.32-3.2-108.544-15.488-192.32-107.968-192.32-220.8 0-112.768 83.584-205.12 192-220.8v-3.2h640c106.048 0 192 85.952 192 192s-85.952 192-192 192z"/>
<glyph unicode="" glyph-name="icon_cloud-upload" data-tags="icon_cloud-upload" d="M832 448c-2.24 0-4.352-0.576-6.528-0.64 4.288 20.864 6.528 42.496 6.528 64.64 0 176.704-143.296 320-320 320s-320-143.296-320-320c0-1.088 0.32-2.112 0.32-3.2-108.544-15.488-192.32-107.968-192.32-220.8 0-123.712 100.288-224 224-224h160.512c35.072 0 63.488 28.416 63.488 63.488v192.512h-135.808l199.808 256 199.808-256h-135.808v-192.512c0-35.072 28.416-63.488 63.488-63.488h192.512c106.048 0 192 85.952 192 192s-85.952 192-192 192z"/>
<glyph unicode="" glyph-name="icon_cloud-download" data-tags="icon_cloud-download" d="M832 448c-2.24 0-4.352-0.576-6.528-0.64 4.288 20.864 6.528 42.496 6.528 64.64 0 176.704-143.296 320-320 320s-320-143.296-320-320c0-1.088 0.32-2.112 0.32-3.2-108.544-15.488-192.32-107.968-192.32-220.8 0-112.768 83.584-205.12 192-220.8v-3.2h320l-199.808 256h135.808v256c0 35.328 28.672 64 64 64s64-28.672 64-64v-256h135.808l-199.808-256h320c106.048 0 192 85.952 192 192s-85.952 192-192 192z"/>
<glyph unicode="" glyph-name="icon_lightbulb" data-tags="icon_lightbulb" d="M869.632 443.008c4.544 12.16 8.32 24.704 11.584 37.312 0.576 2.176 1.28 4.224 1.792 6.4 2.88 11.84 4.928 23.936 6.656 36.096 0.384 2.816 1.088 5.632 1.408 8.448 1.728 14.784 2.688 29.696 2.688 44.736 0 211.712-172.288 384-384 384s-384-172.288-384-384c0-15.040 0.96-29.952 2.752-44.672 0.32-2.88 0.96-5.632 1.344-8.448 1.728-12.16 3.776-24.256 6.656-36.096 0.512-2.176 1.216-4.288 1.792-6.4 3.264-12.608 7.040-25.152 11.584-37.312 0.448-1.152 0.96-2.304 1.344-3.456 5.056-13.12 10.688-25.984 17.152-38.464 0.256-0.512 0.512-0.96 0.768-1.408 6.72-12.928 14.144-25.472 22.336-37.632 0.256-0.384 0.512-0.704 0.704-1.088 8-11.84 16.704-23.168 25.984-34.112 0.768-0.896 1.472-1.728 2.24-2.624 8.448-9.792 17.6-19.072 27.072-28.032 2.112-1.984 4.096-3.968 6.272-5.888 2.816-2.496 5.312-5.312 8.256-7.744 1.728-1.472 3.84-2.432 5.76-3.648 6.336-5.248 12.352-10.752 19.072-15.616 2.688-1.92 4.352-3.776 6.656-5.696 44.16-36.672 22.592-65.664 71.744-65.664 6.848 0 224.512 0 289.024 0 49.088 0 27.584 28.992 71.808 65.664 2.304 1.92 3.968 3.712 6.656 5.696 6.72 4.864 12.736 10.368 19.072 15.616 1.856 1.28 3.968 2.176 5.76 3.648 2.88 2.432 5.44 5.248 8.256 7.744 2.112 1.92 4.16 3.968 6.272 5.888 9.472 8.96 18.56 18.24 27.072 28.032 0.768 0.896 1.472 1.728 2.24 2.624 9.28 10.944 17.984 22.272 25.984 34.112 0.256 0.384 0.512 0.704 0.704 1.088 8.128 12.096 15.552 24.64 22.272 37.568 0.256 0.448 0.512 0.96 0.768 1.408 6.464 12.48 12.096 25.344 17.152 38.464 0.384 1.216 0.896 2.304 1.344 3.456zM736 572.992c-17.664 0-32 14.336-32 32 0 97.536-88 163.008-160 163.008-17.664 0-32 14.336-32 32s14.336 32 32 32c110.016 0 224-81.024 224-227.008 0-17.664-14.336-32-32-32zM505.856 0h-140.608l115.392-59.008c9.152-4.672 19.136-7.040 29.12-7.040 9.856 0 19.776 2.304 28.864 6.848l117.056 59.2h-149.824zM704 96c0 17.664-14.336 32-32 32h-320c-17.664 0-32-14.336-32-32s14.336-32 32-32h320c17.664 0 32 14.336 32 32z"/>
<glyph unicode="" glyph-name="icon_gift" data-tags="icon_gift" d="M960 704h-381.312v-192h445.312v128c0 35.328-28.672 64-64 64zM64 704c-35.328 0-64-28.672-64-64v-128h448v192h-384zM64 448v-448c0-35.328 28.672-64 64-64h320v512h-384zM896-64c35.328 0 64 28.672 64 64v448h-381.312v-512h317.312zM511.936 768.512h0.192c-0.064-0.128-0.128-0.384-0.128-0.512h66.688c56.64 0 136.832 0 189.312 0 88.384 0 128 43.008 128 96s-39.616 96-128 96c-82.752 0-147.904-37.248-192-80.448-19.328 11.456-41.664 18.432-65.856 18.432-23.168 0-44.608-6.528-63.424-17.152-44.032 42.688-108.8 79.168-190.72 79.168-88.384 0-128-43.008-128-96s39.616-96 128-96c53.312 0 135.232 0 192 0h64c0 0.128-0.064 0.384-0.064 0.512zM832 864c0-26.432-34.816-32-64-32h-145.344c-0.512 0.896-0.96 1.856-1.472 2.688 32.512 31.616 81.792 61.312 146.816 61.312 29.184 0 64-5.568 64-32zM192 864c0 26.432 34.816 32 64 32 63.616 0 111.872-28.48 144.384-59.008-1.024-1.6-1.792-3.328-2.752-4.992h-141.632c-29.184 0-64 5.568-64 32z"/>
<glyph unicode="" glyph-name="icon_house" data-tags="icon_house" d="M52.992 455.808l459.008 397.824 459.008-397.824c6.080-5.248 13.568-7.808 20.992-7.808 8.96 0 17.856 3.776 24.192 11.008 11.584 13.376 10.112 33.536-3.2 45.184l-480 416c-12.032 10.432-29.888 10.432-41.92 0l-171.072-148.224v60.032c0 35.328-28.672 64-64 64s-64-28.672-64-64v-170.944l-180.992-156.864c-13.312-11.584-14.784-31.808-3.2-45.184 11.648-13.312 31.808-14.784 45.184-3.2zM384 320h256v-320h192c35.328 0 64 28.672 64 64v313.664c0 19.2-8.576 37.312-23.424 49.472l-320 262.336c-11.776 9.664-26.176 14.528-40.576 14.528s-28.8-4.864-40.576-14.528l-320-262.336c-14.848-12.096-23.424-30.272-23.424-49.472v-313.664c0-35.328 28.672-64 64-64h192v320z"/>
<glyph unicode="" glyph-name="icon_camera" data-tags="icon_camera" d="M960 704h-128c0 0-36.992 0-64 64-13.76 32.576-28.672 64-64 64h-256c-35.328 0-50.688-31.232-64-64-25.984-64-64-64-64-64h-64c0 35.328-28.672 64-64 64h-64c-35.328 0-64-28.672-64-64-35.328 0-64-28.672-64-64v-128h355.52c44.352 76.224 125.952 128 220.48 128s176.128-51.776 220.48-128h227.52v128c0 35.328-28.672 64-64 64zM224 576h-128c-17.664 0-32 14.336-32 32s14.336 32 32 32h128c17.664 0 32-14.336 32-32s-14.336-32-32-32zM384 384c0-106.039 85.961-192 192-192s192 85.961 192 192c0 106.039-85.961 192-192 192s-192-85.961-192-192zM832 384c0-141.376-114.624-256-256-256s-256 114.624-256 256c0 22.208 3.712 43.456 9.024 64h-329.024v-320c0-35.328 28.672-64 64-64h896c35.328 0 64 28.672 64 64v320h-201.024c5.312-20.544 9.024-41.792 9.024-64z"/>
<glyph unicode="" glyph-name="icon_mail" data-tags="icon_mail" d="M960 832h-896c-35.328 0-64-28.672-64-64v-107.456l512-204.8 512 204.8v107.456c0 35.328-28.672 64-64 64zM0 556.032v-428.032c0-35.328 28.672-64 64-64h896c35.328 0 64 28.672 64 64v428.032l-512-204.8-512 204.8z"/>
<glyph unicode="" glyph-name="icon_cone" data-tags="icon_cone" d="M694.272 576l-121.984 341.504c-9.088 25.472-33.216 42.496-60.288 42.496s-51.2-17.024-60.288-42.496l-121.984-341.504h364.544zM854.272 128l-91.456 256h-501.632l-91.456-256zM64 64c-35.328 0-64-28.672-64-64s28.672-64 64-64h896c35.328 0 64 28.672 64 64s-28.672 64-64 64h-896z"/>
<glyph unicode="" glyph-name="icon_ribbon" data-tags="icon_ribbon" d="M128 768v-768c0-25.856 15.616-49.216 39.488-59.136 7.936-3.264 16.256-4.864 24.512-4.864 16.64 0 33.024 6.528 45.248 18.752l274.752 274.752 274.752-274.752c12.224-12.224 28.608-18.752 45.248-18.752 8.256 0 16.576 1.6 24.448 4.864 23.936 9.92 39.552 33.28 39.552 59.136v768h-768zM896 832v64c0 35.328-28.672 64-64 64h-640c-35.328 0-64-28.672-64-64v-64h768z"/>
<glyph unicode="" glyph-name="icon_bag" data-tags="icon_bag" d="M192-64h640c35.328 0 64 28.672 64 64v704c0 35.328-28.672 64-64 64h-128.32c-1.536 106.304-86.656 192-191.68 192s-190.144-85.696-191.68-192h-128.32c-35.328 0-64-28.672-64-64v-704c0-35.328 28.672-64 64-64zM608 576h-192c-17.664 0-32 14.336-32 32s14.336 32 32 32h192c17.664 0 32-14.336 32-32s-14.336-32-32-32zM512 896c69.568 0 126.144-57.152 127.68-128h-255.36c1.536 70.848 58.112 128 127.68 128z"/>
<glyph unicode="" glyph-name="icon_cart" data-tags="icon_cart" d="M960 768h-768c-4.992 0-9.344-1.728-14.016-2.816l-24.832 106.112c-3.392 14.464-16.256 24.704-31.168 24.704h-91.84c-17.664 0-32-14.336-32-32s14.272-32 32-32h66.496l39.744-169.984 55.616-278.016c0-2.304 1.088-4.288 1.344-6.528l-32.576-146.56c-2.112-9.472 0.192-19.392 6.272-26.944 6.080-7.616 15.232-11.968 24.96-11.968h726.016c17.664 0 32 14.336 32 32s-14.336 32-32 32h-686.080l14.656 65.92c3.2-0.512 6.080-1.92 9.408-1.92h583.36c35.328 0 56.64 6.976 73.664 48l103.936 318.848c18.048 57.152-21.568 81.152-56.96 81.152zM192 64c0-35.346 28.654-64 64-64s64 28.654 64 64c0 35.346-28.654 64-64 64s-64-28.654-64-64zM768 64c0-35.346 28.654-64 64-64s64 28.654 64 64c0 35.346-28.654 64-64 64s-64-28.654-64-64z"/>
<glyph unicode="" glyph-name="icon_tag" data-tags="icon_tag" d="M993.856 959.68c-0.576 0-1.152 0-1.728 0-0.512 0-0.96 0.064-1.472 0h-402.368c-9.792-0.448-32.064-15.744-34.944-18.624l-470.656-470.656c-24.96-24.96-24.96-65.408 0-90.368l361.344-361.344c12.544-12.48 28.864-18.688 45.184-18.688s32.704 6.208 45.184 18.688l470.656 470.656c2.88 2.88 18.944 22.656 18.944 34.944v403.648c0.896 17.856-12.608 31.744-30.144 31.744zM928 832c-17.664 0-32 14.336-32 32s14.336 32 32 32 32-14.336 32-32c0-17.664-14.336-32-32-32z"/>
<glyph unicode="" glyph-name="icon_tags" data-tags="icon_tags" d="M929.856 960c-0.576 0-1.152 0-1.728 0-0.512 0-0.96 0.064-1.472 0h-338.368c-9.792-0.512-32.064-15.808-34.944-18.688l-407.36-407.296c-24.96-24.96-24.96-65.408 0-90.368l50.816-50.816-50.816-50.816c-24.96-24.96-24.96-65.408 0-90.368l297.344-297.344c12.48-12.48 28.8-18.688 45.184-18.688s32.704 6.208 45.184 18.688l407.296 407.36c2.944 2.88 19.008 22.592 19.008 34.88v531.648c0.896 17.856-12.608 31.808-30.144 31.808zM864 896.256c17.664 0 32-14.336 32-32s-14.336-32-32-32-32 14.336-32 32 14.336 32 32 32zM895.808 406.848l-407.168-407.36-297.344 297.216 50.816 50.816 201.28-201.28c12.48-12.48 28.8-18.688 45.184-18.688s32.704 6.208 45.184 18.688l362.24 362.304v-101.184c-0.192-0.32-0.32-0.512-0.192-0.512-0.064 0-0.064 0 0 0z"/>
<glyph unicode="" glyph-name="icon_trash" data-tags="icon_trash" d="M832 896h-128c0 35.328-28.672 64-64 64h-192c-35.328 0-64-28.672-64-64h-128c-35.328 0-64-28.672-64-64h704c0 35.328-28.672 64-64 64zM192 0c0-35.328 28.672-64 64-64h576c35.328 0 64 28.672 64 64v768h-704v-768zM704 608c0 17.664 14.336 32 32 32s32-14.336 32-32v-512c0-17.664-14.336-32-32-32s-32 14.336-32 32v512zM512 608c0 17.664 14.336 32 32 32s32-14.336 32-32v-512c0-17.664-14.336-32-32-32s-32 14.336-32 32v512zM320 608c0 17.664 14.336 32 32 32s32-14.336 32-32v-512c0-17.664-14.336-32-32-32s-32 14.336-32 32v512z"/>
<glyph unicode="" glyph-name="icon_cursor" data-tags="icon_cursor" d="M849.92 279.296c6.848 11.712 5.632 26.432-3.136 36.8l-532.288 632.512c-8.704 10.304-22.912 14.080-35.456 9.472-12.608-4.608-21.056-16.64-21.056-30.080v-835.008c0-13.824 8.832-26.048 21.952-30.4 3.264-1.088 6.656-1.6 10.048-1.6 9.92 0 19.52 4.608 25.664 12.928l143.104 192.768 99.264-283.968c12.736-36.352 52.544-55.552 88.896-42.816s55.552 52.544 42.816 88.896l-97.408 278.592 223.872-43.328c13.504-2.624 26.88 3.584 33.728 15.232z"/>
<glyph unicode="" glyph-name="icon_mic" data-tags="icon_mic" d="M448 134.144v-134.144h-96c-17.664 0-32-14.336-32-32s14.336-32 32-32h320c17.664 0 32 14.336 32 32s-14.336 32-32 32h-96v134.528c133.312 26.304 256 134.208 256 313.472v96c0 17.664-14.336 32-32 32s-32-14.336-32-32v-96c0-168.064-128.832-256-256-256-123.328 0-256 80.128-256 256v96c0 17.664-14.336 32-32 32s-32-14.336-32-32v-96c0-181.76 120.512-288.384 256-313.856zM512 320c70.72 0 128 57.28 128 128v384c0 70.72-57.28 128-128 128s-128-57.28-128-128v-384c0-70.72 57.28-128 128-128z"/>
<glyph unicode="" glyph-name="icon_compass" data-tags="icon_compass" d="M512 960c-282.752 0-512-229.248-512-512s229.248-512 512-512 512 229.248 512 512-229.248 512-512 512zM763.136 655.040l-123.968-198.656c0.192-2.816 0.832-5.504 0.832-8.384 0-70.72-57.28-128-128-128-2.88 0-5.568 0.64-8.384 0.832l-198.656-123.968c-5.184-3.264-11.072-4.864-16.96-4.864-8.256 0-16.448 3.2-22.656 9.344-10.56 10.56-12.416 26.944-4.48 39.552l123.968 198.656c-0.192 2.88-0.832 5.568-0.832 8.448 0 70.72 57.28 128 128 128 2.88 0 5.568-0.64 8.384-0.832l198.656 123.968c12.416 7.872 28.992 6.016 39.552-4.544 10.624-10.496 12.48-26.88 4.544-39.552zM448 448c0-35.346 28.654-64 64-64s64 28.654 64 64c0 35.346-28.654 64-64 64s-64-28.654-64-64z"/>
<glyph unicode="" glyph-name="icon_pin" data-tags="icon_pin" d="M488.704-46.656c5.376-5.952 10.56-9.792 15.552-12.48 0.064-0.064 0.192-0.064 0.256-0.128 3.456-1.792 6.848-3.136 10.048-3.136s6.592 1.344 10.048 3.136c0.064 0.064 0.192 0.064 0.256 0.128 4.992 2.688 10.176 6.528 15.552 12.48 0 0 297.472 323.52 327.36 603.84 1.792 14.464 3.008 29.12 3.008 44.032 0 198.144-160.64 358.784-358.784 358.784s-358.784-160.64-358.784-358.784c0-15.168 1.216-29.952 3.072-44.608 30.656-280.192 332.416-603.264 332.416-603.264zM512 832c127.232 0 230.784-103.552 230.784-230.784s-103.552-230.784-230.784-230.784-230.784 103.552-230.784 230.784c0 127.232 103.552 230.784 230.784 230.784z"/>
<glyph unicode="" glyph-name="icon_pushpin" data-tags="icon_pushpin" d="M256 335.552c0-49.088 123.52-75.136 256.064-78.784 0-0.256-0.064-0.512-0.064-0.768v-192c0-35.328 14.336-128 32-128s32 92.672 32 128v192c0 0.256-0.064 0.512-0.064 0.768 132.544 3.648 256.064 29.696 256.064 78.784 0 52.096-47.168 90.112-128 110.592v331.456c80.832 27.392 128 71.488 128 102.848 0 106.048-576 106.048-576 0 0-34.496 47.168-77.632 128-104v-330.304c-80.832-20.544-128-58.496-128-110.592z"/>
<glyph unicode="" glyph-name="icon_map" data-tags="icon_map" d="M322.688 774.272l-258.688 121.728v-768l258.688-121.728zM386.688 7.168l254.656 114.752v768l-254.656-114.752zM705.344 120.576l254.656-120.576v768l-254.656 120.576z"/>
<glyph unicode="" glyph-name="icon_drawer" data-tags="icon_drawer" d="M896 832c-17.984 40-50.624 64-86.016 64h-601.984c-35.328 0-64-24-80-64l-128-512v-289.024c0-17.664 14.336-32 32-32h960c17.664 0 32 14.336 32 32v285.056l-0.832 2.944-127.168 513.024zM188.48 810.688c2.944 6.592 10.432 21.312 19.52 21.312h601.984c8.768 0 18.88-9.024 25.984-22.784l112.704-458.048c0-0.128-0.192 0-0.192-0.128 0-17.664-14.336-32-32-32-0.064 0-0.064-0.064-0.128-0.064h-244.352c-17.664 0-32-14.336-32-32v-62.976c0-17.664-14.336-32-32-32-0.64 0-1.28-0.832-1.92-1.024h-188.992c-0.448 0.192-0.448 1.024-1.088 1.024-17.664 0-32 14.336-32 32v62.976c0 17.664-14.336 32-32 32h-244.352c-0.064 0-0.064 0.064-0.128 0.064-17.664 0-32.512 14.336-32.512 32 0 0.448-0.512 0.128-0.64 0.448l114.112 459.2z"/>
<glyph unicode="" glyph-name="icon_toolbox" data-tags="icon_toolbox" d="M960 768h-256v64c0 35.328-28.672 64-64 64h-256c-35.328 0-64-28.672-64-64v-64h-256c-35.328 0-64-28.672-64-64v-128h1024v128c0 35.328-28.672 64-64 64zM384 832h256v-64h-256v64zM384 512h256v-64h-256zM704 448c0-35.328-28.672-64-64-64h-256c-35.328 0-64 28.672-64 64v64h-320v-384c0-35.328 28.672-64 64-64h896c35.328 0 64 28.672 64 64v384h-320v-64z"/>
<glyph unicode="" glyph-name="icon_book" data-tags="icon_book" d="M161.344-64h605.12c35.328 0 64 28.672 64 64v672c0 17.664-14.336 32-32 32 0 0 0 0 0 0h-542.464c-1.6 0-4.736-0.256-7.744-0.448l-86.912 0.448c-53.696 0-97.344 41.024-97.344 94.656 0 53.696 42.304 97.344 96 97.344h736v-736c0-17.664 12.8-32 30.528-32s33.472 14.336 33.472 32v768c0 17.664-15.808 32-33.472 32h-765.184c-88.32 0-159.808-70.976-161.088-158.976l-0.256 0.32v-704c0-89.088 72.256-161.344 161.344-161.344z"/>
<glyph unicode="" glyph-name="icon_contacts" data-tags="icon_contacts" d="M64 960c-35.328 0-64-28.672-64-64v-896c0-35.328 28.672-64 64-64h64v1024h-64zM832 960h-640v-1024h640c35.328 0 64 28.672 64 64v896c0 35.328-28.672 64-64 64zM540.48 713.344c53.504 0 96.832-43.392 96.832-96.832 0-53.504-43.392-96.896-96.832-96.896-53.504 0-96.896 43.392-96.896 96.896s43.392 96.832 96.896 96.832zM384 268.352c0 117.376 70.976 212.48 158.464 212.48s158.464-95.168 158.464-212.48-316.928-117.312-316.928 0zM960 896h64v-192h-64zM960 640h64v-192h-64zM960 384h64v-192h-64z"/>
<glyph unicode="" glyph-name="icon_archive" data-tags="icon_archive" d="M960 832h-896c-35.328 0-64-28.672-64-64v-128h1024v128c0 35.328-28.672 64-64 64zM64 0c0-35.328 28.672-64 64-64h768c35.328 0 64 28.672 64 64v576h-896v-576zM384 448h256c35.328 0 64-28.672 64-64s-28.672-64-64-64h-256c-35.328 0-64 28.672-64 64s28.672 64 64 64z"/>
<glyph unicode="" glyph-name="icon_heart" data-tags="icon_heart" d="M1023.488 581.312c-2.688 157.056-130.112 297.024-287.488 297.024-91.008 0-171.2-47.616-224-117.504-52.8 69.888-132.992 117.504-224 117.504-157.376 0-284.8-139.968-287.488-297.024h-0.512c0-0.96 0.192-1.856 0.192-2.816 0-0.704-0.192-1.408-0.192-2.176 0-4.416 1.088-7.744 1.28-11.968 14.080-400.256 506.688-564.352 506.688-564.352s499.84 163.904 514.624 563.712c0.256 4.48 1.408 8 1.408 12.608 0 0.768-0.192 1.472-0.192 2.176 0 1.024 0.192 1.856 0.192 2.816h-0.512z"/>
<glyph unicode="" glyph-name="icon_profile" data-tags="icon_profile" d="M704 768c0 102.784-89.216 192-192 192s-192-89.216-192-192c0-102.784 89.216-192 192-192s192 89.216 192 192zM512 512c-168.192 0-320-181.44-320-406.912s640-225.472 640 0-151.808 406.912-320 406.912z"/>
<glyph unicode="" glyph-name="icon_group" data-tags="icon_group" d="M448 800c0 85.632-74.368 160-160 160s-160-74.368-160-160c0-85.632 74.368-160 160-160s160 74.368 160 160zM560 192c0 256-132.864 384-280 384s-280-128-280-384c0-175.36 560-175.36 560 0zM752 515.52c85.632 0 160 74.368 160 160s-74.368 160-160 160-160-74.368-160-160 74.368-160 160-160zM744 451.52c-44.224 0-86.592-12.992-124.992-36.16 23.232-62.464 36.992-136.512 36.992-223.36 0-86.208-57.472-153.344-156.096-191.744 122.304-103.552 524.096-81.472 524.096 67.264 0 256-132.864 384-280 384z"/>
<glyph unicode="" glyph-name="icon_grid-2x2" data-tags="icon_grid-2x2" d="M192 512h192c35.328 0 64 28.672 64 64v192c0 35.328-28.672 64-64 64h-192c-35.328 0-64-28.672-64-64v-192c0-35.328 28.672-64 64-64zM640 512h192c35.328 0 64 28.672 64 64v192c0 35.328-28.672 64-64 64h-192c-35.328 0-64-28.672-64-64v-192c0-35.328 28.672-64 64-64zM128 128c0-35.328 28.672-64 64-64h192c35.328 0 64 28.672 64 64v192c0 35.328-28.672 64-64 64h-192c-35.328 0-64-28.672-64-64v-192zM576 128c0-35.328 28.672-64 64-64h192c35.328 0 64 28.672 64 64v192c0 35.328-28.672 64-64 64h-192c-35.328 0-64-28.672-64-64v-192z"/>
<glyph unicode="" glyph-name="icon_grid-3x3" data-tags="icon_grid-3x3" d="M128 640h128c35.328 0 64 28.672 64 64v128c0 35.328-28.672 64-64 64h-128c-35.328 0-64-28.672-64-64v-128c0-35.328 28.672-64 64-64zM448 640h128c35.328 0 64 28.672 64 64v128c0 35.328-28.672 64-64 64h-128c-35.328 0-64-28.672-64-64v-128c0-35.328 28.672-64 64-64zM768 640h128c35.328 0 64 28.672 64 64v128c0 35.328-28.672 64-64 64h-128c-35.328 0-64-28.672-64-64v-128c0-35.328 28.672-64 64-64zM64 384c0-35.328 28.672-64 64-64h128c35.328 0 64 28.672 64 64v128c0 35.328-28.672 64-64 64h-128c-35.328 0-64-28.672-64-64v-128zM384 384c0-35.328 28.672-64 64-64h128c35.328 0 64 28.672 64 64v128c0 35.328-28.672 64-64 64h-128c-35.328 0-64-28.672-64-64v-128zM704 384c0-35.328 28.672-64 64-64h128c35.328 0 64 28.672 64 64v128c0 35.328-28.672 64-64 64h-128c-35.328 0-64-28.672-64-64v-128zM64 64c0-35.328 28.672-64 64-64h128c35.328 0 64 28.672 64 64v128c0 35.328-28.672 64-64 64h-128c-35.328 0-64-28.672-64-64v-128zM384 64c0-35.328 28.672-64 64-64h128c35.328 0 64 28.672 64 64v128c0 35.328-28.672 64-64 64h-128c-35.328 0-64-28.672-64-64v-128zM704 64c0-35.328 28.672-64 64-64h128c35.328 0 64 28.672 64 64v128c0 35.328-28.672 64-64 64h-128c-35.328 0-64-28.672-64-64v-128z"/>
<glyph unicode="" glyph-name="icon_music" data-tags="icon_music" d="M25.536-14.592c47.872-62.144 146.752-66.176 220.864-9.088 30.144 23.232 51.008 53.056 62.592 84.352 6.656 13.184 11.008 31.872 11.008 53.248v478.272l576 108.864v-252.544c0-89.088-68.16-109.568-92.288-114.112-2.112-0.256-4.16-0.768-6.272-1.152-1.088-0.128-2.688-0.32-2.688-0.32l0.384-0.128c-28.544-5.184-57.28-17.152-83.072-36.992-74.112-57.088-95.424-153.728-47.552-215.872s146.752-66.24 220.864-9.152c37.504 28.928 61.376 67.968 69.696 107.52 2.88 9.6 4.928 20.16 4.928 32.128v621.184c0 3.904-0.768 7.232-1.088 10.944 0.128 1.92 1.088 4.096 1.088 6.016v64c0 35.328-28.672 55.296-64 44.48l-576-108.864c-35.328-10.752-64-48.192-64-83.52v-64c0-0.896 0.448-1.536 0.512-2.368-0.064-1.92-0.512-3.584-0.512-5.504v-338.816c0-89.216-68.352-109.632-92.416-114.112-1.216-0.192-2.432-0.576-3.712-0.768-3.136-0.512-5.184-0.704-5.184-0.704l0.704-0.32c-28.288-5.312-56.768-17.152-82.304-36.8-74.112-57.088-95.36-153.728-47.552-215.872z"/>
<glyph unicode="" glyph-name="icon_pause_alt" data-tags="icon_pause_alt" d="M512 960c-282.752 0-512-229.248-512-512s229.248-512 512-512 512 229.248 512 512-229.248 512-512 512zM448 320c0-35.328-28.672-64-64-64s-64 28.672-64 64v256c0 35.328 28.672 64 64 64s64-28.672 64-64v-256zM704 320c0-35.328-28.672-64-64-64s-64 28.672-64 64v256c0 35.328 28.672 64 64 64s64-28.672 64-64v-256z"/>
<glyph unicode="" glyph-name="icon_phone" data-tags="icon_phone" d="M422.912 701.952c-12.224 140.608-158.912 209.6-165.12 212.416-5.824 2.752-12.352 3.584-18.624 2.496-169.344-28.096-194.816-126.656-195.84-130.752-1.408-5.76-1.152-11.712 0.64-17.28 201.984-626.688 621.76-742.848 759.744-781.056 10.624-2.944 19.392-5.312 26.048-7.488 3.2-1.088 6.528-1.536 9.856-1.536 4.544 0 9.088 0.96 13.248 2.88 4.224 1.92 103.936 48.896 128.32 202.112 1.088 6.656 0 13.568-3.072 19.584-2.176 4.224-54.336 103.488-198.976 138.56-10.112 2.624-20.48-0.064-28.288-6.72-45.632-38.976-108.672-80.512-135.872-84.8-182.336 89.152-284.16 260.224-288 292.672-2.24 18.24 39.552 82.304 87.616 134.4 6.080 6.592 9.152 15.552 8.32 24.512z"/>
<glyph unicode="" glyph-name="icon_upload" data-tags="icon_upload" d="M192 640h192v-384h256l-1.344 384h193.344l-320 320zM768 128h-512v128h-128v-256h768v256h-128z"/>
<glyph unicode="" glyph-name="icon_download" data-tags="icon_download" d="M512 256l320 320h-192v384h-256l1.152-384h-193.152zM128 128v-128h768v256h-128v-128h-512v128h-128z"/>
<glyph unicode="" glyph-name="social_facebook" data-tags="social_facebook" d="M385.728-64h191.872l0.128 512 174.272 0.064 18.688 176.448h-193.088l0.256 88.32c0 46.016 3.136 70.656 69.184 70.656h121.984v176.512h-174.912c-169.536 0-208.576-87.616-208.576-231.552l0.192-103.936-128.704-0.064v-176.448h128.704v-512z"/>
<glyph unicode="" glyph-name="social_twitter" data-tags="social_twitter" d="M995.776 848.64c-40.576-24.064-85.568-41.536-133.44-51.008-38.336 40.896-92.928 66.368-153.344 66.368-116.032 0-210.112-94.080-210.112-210.048 0-16.448 1.856-32.512 5.44-47.872-174.592 8.768-329.408 92.416-433.024 219.52-18.112-30.976-28.416-67.072-28.416-105.6 0-72.896 37.12-137.216 93.44-174.848-34.432 1.152-66.816 10.624-95.168 26.368 0-0.896 0-1.728 0-2.624 0-101.76 72.448-186.688 168.512-206.016-17.6-4.8-36.16-7.36-55.36-7.36-13.568 0-26.688 1.344-39.552 3.776 26.752-83.456 104.32-144.192 196.224-145.92-71.872-56.32-162.496-89.92-260.928-89.92-16.96 0-33.664 1.024-50.112 2.944 92.992-59.584 203.392-94.4 322.048-94.4 386.432 0 597.76 320.128 597.76 597.76 0 9.088-0.192 18.176-0.64 27.2 41.152 29.504 76.8 66.496 104.96 108.608-37.696-16.704-78.144-28.032-120.64-33.088 43.392 25.984 76.672 67.2 92.352 116.16z"/>
<glyph unicode="" glyph-name="social_pinterest" data-tags="social_pinterest" d="M257.92 367.808c49.472 87.488-15.936 106.688-26.176 170.112-41.92 259.2 299.008 436.224 477.568 255.104 123.52-125.44 42.176-511.104-156.992-471.040-190.784 38.336 93.44 345.344-58.816 405.568-123.776 49.024-189.504-149.76-130.816-248.576-34.432-169.92-108.544-329.92-78.528-542.976 97.28 70.592 130.112 205.824 156.992 346.816 48.896-29.76 75.072-60.672 137.408-65.472 229.952-17.856 358.464 229.568 326.976 457.92-27.904 202.368-229.696 305.408-444.864 281.28-170.112-19.072-339.712-156.608-346.752-353.28-4.288-120.064 29.76-210.176 144-235.456z"/>
<glyph unicode="" glyph-name="social_googleplus" data-tags="social_googleplus" horiz-adv-x="1664" d="M524.8 576v-192c0 0 204.8 0 275.2 0-38.4-134.4-115.2-236.8-275.2-236.8-172.8 0-307.2 140.8-307.2 307.2 0 172.8 134.4 307.2 307.2 307.2 89.6 0 153.6-32 204.8-70.4 38.4 38.4 38.4 44.8 140.8 147.2-89.6 70.4-217.6 121.6-345.6 121.6-288 0-524.8-224-524.8-505.6s236.8-518.4 524.8-518.4c428.8 0 531.2 396.8 499.2 640-102.4 0-499.2 0-499.2 0zM1664 576h-192v192h-128v-192h-192v-128h192v-192h128v192h192z"/>
<glyph unicode="" glyph-name="social_tumblr" data-tags="social_tumblr" d="M329.472 181.248c0-46.784 4.928-82.56 14.72-107.2 9.856-24.64 27.392-47.936 52.864-69.824 25.344-21.76 56.064-38.72 92.032-50.56 36.032-11.776 63.552-17.664 110.4-17.664 41.216 0 79.552 4.16 115.072 12.416 35.456 8.32 73.6 20.352 117.312 40.896v153.984c-51.264-33.728-81.92-40.576-133.76-40.576-29.12 0-54.976 6.784-77.696 20.416-17.088 10.048-32.704 27.456-38.976 44.16-6.336 16.832-5.568 51.072-5.568 110.528l0.128 234.176h255.936v192h-255.936v256h-165.12c-6.528-52.8-18.56-96.384-35.904-130.496-17.344-34.24-40.384-63.488-69.12-87.936-28.544-24.384-73.536-43.136-113.728-56.192v-173.376h137.408v-330.752z"/>
<glyph unicode="" glyph-name="social_tumbleupon" data-tags="social_tumbleupon" d="M704 458.112l-68.032-24-59.968 24v-124.032c0-119.936 86.144-206.080 192-206.080s192 86.144 192 192v128h-128v-128c0-35.264-28.736-64-64-64s-64 28.736-64 78.016v124.096zM256 128c105.856 0 192 86.144 192 192v256c0 35.264 28.736 64 64 64 35.2 0 64-28.672 64-49.92v-62.080l60.032-24 67.968 24v62.080c0 91.84-86.144 177.92-192 177.92s-192-86.080-192-192v-256c0-35.264-28.736-64-64-64s-64 28.736-64 64v128h-128v-128c0-105.856 86.144-192 192-192z"/>
<glyph unicode="" glyph-name="social_wordpress" data-tags="social_wordpress" d="M512 960c-282.752 0-512-229.248-512-512s229.248-512 512-512 512 229.248 512 512-229.248 512-512 512zM73.152 448c0 61.952 13.696 120.832 38.016 173.952l209.344-558.592c-146.432 69.248-247.36 215.488-247.36 384.64zM512 20.544c-43.072 0-84.608 6.144-123.968 17.408l131.648 372.672 134.848-359.936c0.896-2.112 1.984-4.096 3.136-5.952-45.504-15.616-94.528-24.192-145.664-24.192zM572.352 648.384c26.432 1.344 50.24 4.032 50.24 4.032 23.68 2.752 20.864 36.544-2.752 35.264 0 0-71.104-5.44-116.928-5.44-43.072 0-115.584 5.44-115.584 5.44-23.68 1.344-26.432-33.856-2.816-35.264 0 0 22.4-2.688 46.016-4.032l68.352-182.464-96.064-280.512-159.744 462.976c26.496 1.344 50.24 4.032 50.24 4.032 23.616 2.752 20.864 36.544-2.752 35.264 0 0-71.104-5.44-116.928-5.44-8.192 0-17.92 0.192-28.224 0.512 78.4 116.032 213.312 192.704 366.592 192.704 114.24 0 218.24-42.56 296.384-112.192-1.92 0.128-3.712 0.384-5.696 0.384-43.136 0-73.728-36.544-73.728-75.84 0-35.264 20.864-65.024 43.072-100.288 16.768-28.544 36.224-65.088 36.224-117.888 0-36.544-14.4-79.040-33.344-138.24l-43.84-142.4-158.72 459.392zM950.848 448c0-157.696-87.744-295.36-218.24-369.344l134.080 377.408c25.024 60.992 33.344 109.696 33.344 153.088 0 15.744-1.024 30.336-2.944 43.968 34.24-60.928 53.76-130.816 53.76-205.12z"/>
<glyph unicode="" glyph-name="social_instagram" data-tags="social_instagram" d="M512 867.776c136.704 0 152.896-0.512 206.912-3.008 49.92-2.304 77.056-10.624 95.040-17.6 23.872-9.28 40.96-20.352 58.88-38.272s28.992-34.944 38.272-58.88c7.040-18.048 15.36-45.184 17.6-95.040 2.496-54.080 3.072-70.272 3.072-206.976s-0.512-152.896-3.008-206.912c-2.304-49.92-10.624-77.056-17.6-95.040-9.28-23.872-20.352-40.96-38.272-58.88s-34.944-28.992-58.88-38.272c-18.048-7.040-45.184-15.36-95.040-17.6-54.080-2.496-70.272-3.072-206.976-3.072s-152.896 0.512-206.912 3.008c-49.92 2.304-77.056 10.624-95.040 17.6-23.872 9.28-40.96 20.352-58.88 38.272s-28.992 34.944-38.272 58.88c-7.040 18.048-15.36 45.184-17.6 95.040-2.496 54.080-3.072 70.272-3.072 206.976s0.576 152.896 3.008 206.912c2.304 49.92 10.624 77.056 17.6 95.040 9.28 23.872 20.352 40.96 38.272 58.88s34.944 28.992 58.88 38.272c18.048 7.040 45.184 15.36 95.040 17.6 54.080 2.496 70.272 3.072 206.976 3.072zM512 960c-139.072 0-156.48-0.576-211.072-3.072-54.528-2.496-91.712-11.136-124.288-23.808-33.664-13.056-62.272-30.592-90.688-59.072-28.48-28.416-46.016-57.024-59.072-90.688-12.672-32.576-21.312-69.76-23.808-124.288-2.496-54.592-3.072-72-3.072-211.072s0.576-156.48 3.072-211.072c2.496-54.528 11.136-91.712 23.808-124.288 13.056-33.664 30.592-62.208 59.072-90.688s57.024-45.952 90.688-59.072c32.576-12.672 69.76-21.312 124.288-23.808 54.592-2.496 72-3.072 211.072-3.072s156.48 0.576 211.072 3.072c54.528 2.496 91.712 11.136 124.288 23.808 33.664 13.056 62.208 30.592 90.688 59.072s45.952 57.024 59.072 90.688c12.672 32.576 21.312 69.76 23.808 124.288 2.496 54.592 3.072 72 3.072 211.072s-0.576 156.48-3.072 211.072c-2.496 54.528-11.136 91.712-23.808 124.288-13.056 33.664-30.592 62.208-59.072 90.688s-57.024 45.952-90.688 59.072c-32.576 12.672-69.76 21.312-124.288 23.808-54.592 2.496-72 3.072-211.072 3.072v0zM512 710.912c-145.216 0-262.912-117.696-262.912-262.912s117.696-262.912 262.912-262.912 262.912 117.696 262.912 262.912c0 145.216-117.696 262.912-262.912 262.912zM512 277.312c-94.272 0-170.688 76.416-170.688 170.688s76.416 170.688 170.688 170.688c94.272 0 170.688-76.416 170.688-170.688s-76.416-170.688-170.688-170.688zM846.72 721.28c0-33.932-27.508-61.44-61.44-61.44s-61.44 27.508-61.44 61.44c0 33.932 27.508 61.44 61.44 61.44s61.44-27.508 61.44-61.44z"/>
<glyph unicode="" glyph-name="social_dribbble" data-tags="social_dribbble" d="M512 960c-282.304 0-512-229.696-512-512s229.696-512 512-512 512 229.696 512 512-229.696 512-512 512zM512 884.672c111.168 0 212.672-41.664 289.92-110.208-7.872-11.2-73.664-99.648-229.184-157.952-71.68 131.648-151.104 239.808-163.2 256 32.896 7.936 67.2 12.16 102.464 12.16zM326.080 843.136c11.52-15.808 89.664-124.096 162.112-252.928-204.544-54.336-384.704-53.568-404.288-53.312 28.352 135.744 119.808 248.512 242.176 306.24zM74.624 447.36c0 4.48 0.064 8.96 0.192 13.376 19.136-0.448 231.104-3.136 449.472 62.208 12.544-24.512 24.448-49.408 35.456-74.24-5.76-1.6-11.52-3.328-17.216-5.184-225.536-72.896-345.536-271.616-355.456-288.576-69.824 77.504-112.384 180.096-112.448 292.416zM511.936 10.048c-101.056 0-194.24 34.496-268.416 92.288 7.872 16.064 96.448 187.136 343.104 273.088 0.96 0.32 1.92 0.64 2.88 0.96 61.44-159.552 86.784-293.248 93.312-331.648-52.48-22.336-110.208-34.752-170.88-34.688zM756.352 84.8c-4.48 26.624-27.712 154.624-84.928 311.808 137.024 21.952 257.408-13.952 272.384-18.688-19.52-121.664-89.344-226.752-187.456-293.12zM644.672 465.536c-3.072 7.488-6.208 15.040-9.408 22.592-9.088 21.312-18.816 42.496-28.992 63.36 161.728 65.984 235.008 159.936 244.224 172.416 60.928-74.432 97.792-169.216 98.688-272.448-14.4 3.072-158.976 32.384-304.512 14.080z"/>
<glyph unicode="" glyph-name="social_vimeo" data-tags="social_vimeo" d="M587.392 654.272c116.992 70.208 179.456-28.544 119.552-140.352-59.776-111.744-114.368-184.576-142.976-184.576-28.544 0-50.496 74.752-83.2 205.44-33.792 135.104-33.6 378.432-174.144 350.848-132.48-26.048-306.624-233.984-306.624-233.984l41.6-54.528c0 0 85.76 67.584 114.368 33.792s137.728-441.984 174.144-517.248c31.808-66.048 119.488-153.344 215.744-91.008 96.128 62.336 415.808 335.296 473.088 657.6 57.152 322.24-384.704 254.72-431.552-25.984z"/>
<glyph unicode="" glyph-name="social_linkedin" data-tags="social_linkedin" d="M130.048 704h189.952v-704h-189.952zM709.568 703.936c-69.568 0-104.256-33.152-133.568-55.616v55.68h-190.976v-704h190.976v443.2c0 0-6.976 88.256 98.816 88.256 63.744 0 93.184-36.288 93.184-88.256v-443.2h201.216v436.992c0 240-193.216 266.944-259.648 266.944zM128 864c0-53.019 42.981-96 96-96s96 42.981 96 96c0 53.019-42.981 96-96 96s-96-42.981-96-96z"/>
<glyph unicode="" glyph-name="social_rss" data-tags="social_rss" d="M0.384 960v-196.352c455.808 0 826.752-371.328 826.752-827.648h196.864c0 564.48-459.264 1024-1023.616 1024zM478.848-64h197.12c0.064 372.864-303.232 676.16-675.84 676.16v-196.288c127.808 0 247.936-49.984 338.432-140.544 90.368-90.304 140.288-211.008 140.288-339.328zM136.32-62.72c75.456 0 136.512 60.672 136.512 135.808-0.064 74.688-61.056 136.064-136.512 136.064-75.2 0-136.32-61.312-136.32-136.064 0-75.136 61.12-135.808 136.32-135.808z"/>
<glyph unicode="" glyph-name="social_deviantart" data-tags="social_deviantart" d="M727.744 625.664c-114.624 26.88-238.784 25.728-365.952 6.528-4.608-0.704-9.152-1.408-13.696-2.176l-42.24 78.272c-41.152-5.504-79.808-14.080-115.584-25.472l40.256-84.224c-65.792-25.472-119.744-61.76-158.656-105.408-64.256-72.96-89.664-164.8-58.816-254.272 6.208-18.048 14.592-35.136 24.96-51.2l478.080 131.328-132.736 245.824c4.544 0.896 9.216 1.792 13.952 2.624 214.656 38.272 332.096-20.864 396.416-83.84l-163.584-39.68-68.288 109.12c-39.040 2.304-84.096-0.064-136.256-8.96l120.32-216.896 478.080 131.264c-5.184 12.288-12.672 24.256-22.656 35.776-49.472 57.28-156.736 108.352-273.6 131.392zM174.72 333.696c-14.784 67.328-3.008 142.528 90.432 192.576l73.152-152.96-163.584-39.616z"/>
<glyph unicode="" glyph-name="social_share" data-tags="social_share" d="M754.752 657.792c28.16-21.312 63.104-34.048 101.12-34.048 92.864 0 168.128 75.264 168.128 168.128s-75.264 168.128-168.128 168.128c-92.8 0-168.128-75.264-168.128-168.128 0-0.064 0-0.128 0-0.128l-414.976-200.64c-28.736 22.912-65.088 36.736-104.64 36.736-92.864 0-168.128-75.328-168.128-168.128s75.264-168.128 168.128-168.128c33.536 0 64.768 9.984 91.008 26.88l428.672-207.232c0-0.064 0-0.128 0-0.128 0-92.864 75.264-168.128 168.128-168.128s168.128 75.264 168.128 168.128c0 92.864-75.264 168.128-168.128 168.128-38.016 0-72.96-12.736-101.12-34.048l-419.2 202.624c0.192 2.56 0.32 5.056 0.384 7.616l418.752 202.368z"/>
<glyph unicode="" glyph-name="social_myspace" data-tags="social_myspace" d="M505.472 703.552c24.832 24.832 37.312 55.296 37.312 91.328 0 35.072-12.48 65.088-37.312 89.92-24.768 24.768-55.36 37.184-91.392 37.184-34.944 0-64.96-12.416-89.792-37.184-24.832-24.896-37.312-54.848-37.312-89.92 0-36.032 12.48-66.496 37.312-91.328 24.896-24.832 54.848-37.248 89.792-37.248 36.032 0 66.624 12.416 91.392 37.248zM619.456 675.776c15.104-15.104 32.64-27.008 52.608-35.776 19.968-8.704 41.728-13.12 65.024-13.12 23.424 0 45.056 4.416 65.024 13.12 19.968 8.832 37.44 20.672 52.608 35.776 15.104 15.104 27.072 32.64 35.84 52.608s13.184 41.6 13.184 65.088c0 23.36-4.352 44.992-13.184 65.024-8.704 19.968-20.736 37.504-35.84 52.608s-32.576 27.072-52.608 35.776c-19.904 8.768-41.6 13.12-65.024 13.12-23.296 0-45.056-4.352-65.024-13.12-19.968-8.704-37.504-20.672-52.608-35.776-15.040-15.168-26.944-32.704-35.776-52.672-8.768-19.968-13.184-41.6-13.184-65.024s4.416-45.056 13.184-65.088c8.832-19.904 20.736-37.44 35.776-52.544zM170.048 695.488c27.328 0 50.176 9.472 68.736 28.48 18.496 19.072 27.712 42.176 27.712 69.504 0 26.304-9.28 48.96-27.712 67.904-18.56 19.008-41.408 28.544-68.736 28.544-27.2 0-50.432-9.536-69.312-28.544-19.072-18.944-28.544-41.6-28.544-67.904 0-27.328 9.536-50.432 28.544-69.44 18.944-19.008 42.112-28.544 69.312-28.544zM897.92 495.296c-20.416 20.48-44.608 36.544-72.32 48.256-27.84 11.712-57.344 17.536-88.512 17.536s-60.416-5.824-87.616-17.536c-27.328-11.712-51.136-27.328-71.616-46.784-9.728 36.032-29.504 65.92-59.2 89.856-29.76 23.872-64.576 35.84-104.576 35.84-25.344 0-49.152-5.376-71.616-16.064-22.272-10.816-41.856-25.856-58.304-45.312-6.976 25.28-20.48 46.464-40.96 63.552-20.416 17.088-44.8 25.536-73.152 25.536-33.088 0-61.12-11.456-83.968-34.304-22.912-22.848-22.080-50.944-22.080-84.032v-204.864h168.256v-167.744h281.92v-223.232h450.048v398.592c0 31.168-5.184 60.672-17.408 88.384-12.16 27.776-28.48 51.904-48.896 72.32z"/>
<glyph unicode="" glyph-name="social_skype" data-tags="social_skype" d="M979.712 445.504c0 258.304-210.56 467.776-470.208 467.776-25.792 0-51.136-2.112-75.712-6.144-44.16 28.8-96.704 45.504-153.216 45.504-155.072 0-280.576-125.632-280.576-280.64 0-56.384 16.576-108.8 45.184-152.768-3.84-24.064-5.824-48.64-5.824-73.728 0-258.368 210.432-467.776 470.144-467.776 29.312 0 57.856 2.88 85.568 7.872 43.072-26.752 93.888-42.304 148.288-42.304 155.072 0 280.64 125.632 280.64 280.64 0 58.56-17.92 113.024-48.704 158.080 2.816 20.8 4.416 41.984 4.416 63.488zM553.472 100.8c-149.44-7.808-219.328 25.28-283.392 85.376-71.552 67.136-42.816 143.68 15.488 147.584 58.24 3.904 93.184-66.048 124.288-85.44 31.040-19.392 149.184-63.552 211.584 7.808 67.968 77.632-45.184 117.824-128.128 129.984-118.4 17.536-267.904 81.536-256.256 207.808 11.648 126.080 107.136 190.848 207.68 199.936 128.128 11.648 211.584-19.392 277.568-75.712 76.288-65.088 35.008-137.792-13.568-143.616-48.448-5.824-102.784 107.008-209.6 108.672-110.080 1.728-184.448-114.56-48.576-147.584 135.936-33.024 281.472-46.592 333.952-170.816s-81.472-256.192-231.040-264z"/>
<glyph unicode="" glyph-name="social_youtube" data-tags="social_youtube" d="M885.504 798.528c-233.152 15.68-509.568 19.968-747.008 0-73.728-8.256-124.224-97.984-129.728-166.144-11.648-143.168-11.648-224.64 0-367.808 5.568-68.16 54.784-158.4 129.792-167.872 240.256-15.744 515.264-17.92 747.008 0 72.576 12.608 124.224 99.712 129.792 167.872 11.648 143.168 11.648 233.536 0 376.768-5.632 68.16-46.336 154.112-129.856 157.184zM384 266.88v367.040l320-183.552-320-183.488z"/>
<glyph unicode="" glyph-name="social_picassa" data-tags="social_picassa" d="M256 4.544v453.696l-213.888-213.824c43.84-101.056 119.296-185.152 213.888-239.872zM320-26.752c59.264-24 124.096-37.248 192-37.248 189.504 0 354.944 102.976 443.456 256h-635.456v-218.752zM426.24 736l-160.768 160.832c-158.272-87.104-265.472-255.424-265.472-448.832 0-42.496 5.184-83.776 14.976-123.264l411.264 411.264zM704 922.752c-59.328 24-124.096 37.248-192 37.248-60.544 0-118.592-10.56-172.48-29.824l364.48-364.416v356.992zM768 891.456v-635.456h218.752c24 59.328 37.248 124.096 37.248 192 0 189.504-102.976 354.944-256 443.456z"/>
<glyph unicode="" glyph-name="social_googledrive" data-tags="social_googledrive" d="M975.616 384l-292.928 507.52h-341.376l292.992-507.52zM463.488 511.808l-170.624 295.68-292.864-507.328 170.688-295.68zM288.704-1.344h564.608l170.688 321.344h-552z"/>
<glyph unicode="" glyph-name="social_flickr" data-tags="social_flickr" d="M0 451.52c0-117.809 95.503-213.312 213.312-213.312s213.312 95.503 213.312 213.312c0 117.809-95.503 213.312-213.312 213.312s-213.312-95.503-213.312-213.312zM597.376 451.52c0-117.809 95.503-213.312 213.312-213.312s213.312 95.503 213.312 213.312c0 117.809-95.503 213.312-213.312 213.312s-213.312-95.503-213.312-213.312z"/>
<glyph unicode="" glyph-name="social_blogger" data-tags="social_blogger" d="M957.824 576h-57.408c-35.136 0-65.984 29.76-68.416 64 0 182.656-147.264 320-331.2 320h-167.808c-183.808 0-332.864-148.032-332.992-330.688v-362.816c0-182.592 149.184-330.496 332.992-330.496h358.4c183.936 0 332.608 147.904 332.608 330.56v234.368c0 36.48-29.44 75.072-66.176 75.072zM320 704h192c35.2 0 64-28.8 64-64s-28.8-64-64-64h-192c-35.2 0-64 28.8-64 64s28.8 64 64 64zM704 192h-384c-35.2 0-64 28.8-64 64s28.8 64 64 64h384c35.2 0 64-28.8 64-64s-28.8-64-64-64z"/>
<glyph unicode="" glyph-name="social_spotify" data-tags="social_spotify" d="M512 960c-282.752 0-512-229.248-512-512s229.248-512 512-512 512 229.248 512 512c0 282.752-229.248 512-512 512zM748.544 147.84c-6.4-11.648-18.432-18.24-30.848-18.24-5.76 0-11.52 1.408-16.96 4.352-81.984 45.184-175.104 69.056-269.184 69.056-56.384 0-112.064-8.384-165.376-24.896-18.56-5.76-38.272 4.672-43.968 23.232-5.76 18.56 4.608 57.92 23.232 63.68 60.096 18.56 122.752 28.032 186.176 28.032 105.92 0 210.752-26.88 303.104-77.76 17.024-9.344 23.232-50.432 13.824-67.456zM813.568 340.736c-7.296-14.080-21.632-36.928-36.48-36.928-6.4 0-12.864 1.472-18.88 4.672-101.568 52.736-211.456 79.488-326.592 79.488-63.424 0-126.4-8.384-187.2-25.024-21.952-5.952-44.48 6.912-50.432 28.8-5.888 21.888 6.976 59.2 28.864 65.152 67.84 18.496 138.112 27.904 208.768 27.904 126.656 0 252.672-30.72 364.416-88.768 20.096-10.432 27.968-35.2 17.536-55.296zM882.816 526.080c-8.256-16.448-24.768-30.912-42.048-30.912-7.040 0-14.144 1.6-20.864 4.928-121.28 60.48-251.904 91.072-388.288 91.072-71.040 0-141.824-8.64-210.496-25.6-25.152-6.208-50.56 9.088-56.768 34.24-6.272 25.088 9.088 55.488 34.24 61.696 75.968 18.88 154.368 28.416 233.024 28.416 151.040 0 295.744-33.984 430.080-100.928 23.232-11.584 32.64-39.744 21.12-62.912z"/>
<glyph unicode="" glyph-name="social_delicious" data-tags="social_delicious" d="M960 960h-914.432c-25.088 0-45.568-20.48-45.568-45.632v-914.368c0-35.328 28.672-64 64-64h914.432c25.088 0 45.568 20.48 45.568 45.632v914.368c0 35.328-28.672 64-64 64zM512.704 446.528v-446.528h-448.704v448h448v448h448v-449.472h-447.296z"/>
<glyph unicode="" glyph-name="social_facebook_circle" data-tags="social_facebook_circle" d="M512 960c-282.752 0-512-229.248-512-512s229.248-512 512-512 512 229.248 512 512c0 282.816-229.248 512-512 512zM644.352 448.064l-83.904-0.064-0.064-307.2h-115.136v307.2h-76.8v105.856l76.8 0.064-0.128 62.336c0 86.4 23.424 138.944 125.12 138.944h84.736v-105.92h-52.992c-39.616 0-41.536-14.784-41.536-42.368l-0.128-52.992h95.232l-11.2-105.856z"/>
<glyph unicode="" glyph-name="social_twitter_circle" data-tags="social_twitter_circle" d="M512 960c-282.752 0-512-229.248-512-512s229.248-512 512-512 512 229.248 512 512c0 282.816-229.248 512-512 512zM766.72 562.944c0.256-5.44 0.384-10.88 0.384-16.32 0-166.592-126.784-358.656-358.656-358.656-71.168 0-137.408 20.864-193.216 56.64 9.856-1.152 19.904-1.792 30.080-1.792 59.072 0 113.408 20.16 156.544 53.952-55.168 1.024-101.696 37.504-117.76 87.552 7.744-1.472 15.552-2.24 23.744-2.24 11.52 0 22.656 1.536 33.216 4.416-57.664 11.584-101.12 62.528-101.12 123.584 0 0.512 0 1.024 0 1.6 17.024-9.472 36.416-15.104 57.088-15.808-33.792 22.592-56.064 61.184-56.064 104.896 0 23.104 6.208 44.736 17.024 63.36 62.144-76.288 155.072-126.464 259.84-131.712-2.176 9.216-3.264 18.88-3.264 28.736 0 69.568 56.448 126.016 126.080 126.016 36.224 0 68.992-15.296 92.032-39.808 28.736 5.696 55.744 16.192 80.064 30.592-9.408-29.44-29.376-54.144-55.424-69.76 25.472 3.008 49.792 9.856 72.384 19.84-16.896-25.216-38.336-47.424-62.976-65.088z"/>
<glyph unicode="" glyph-name="social_pinterest_circle" data-tags="social_pinterest_circle" d="M512 960c-282.752 0-512-229.248-512-512s229.248-512 512-512 512 229.248 512 512c0 282.816-229.248 512-512 512zM551.936 309.568c-37.44 2.88-53.12 21.44-82.432 39.296-16.128-84.608-35.84-165.76-94.208-208.064-18.048 127.808 26.432 223.808 47.104 325.76-35.2 59.328 4.224 178.56 78.464 149.184 91.328-36.16-79.168-220.352 35.328-243.328 119.488-24.064 168.32 207.36 94.208 282.624-107.136 108.672-311.68 2.496-286.528-153.088 6.144-38.016 45.376-49.536 15.68-102.080-68.544 15.168-89.024 69.248-86.4 141.312 4.224 117.952 105.984 200.512 208.064 211.968 129.088 14.464 250.176-47.36 266.944-168.768 18.88-137.024-58.24-285.504-196.224-274.816z"/>
<glyph unicode="" glyph-name="social_googleplus_circle" data-tags="social_googleplus_circle" d="M512 960c-281.6 0-512-230.4-512-512s230.4-512 512-512 512 230.4 512 512-230.4 512-512 512zM422.4 211.2c-128 0-230.4 108.8-230.4 236.8s102.4 236.8 230.4 236.8c57.6 0 115.2-25.6 153.6-57.6-38.4-44.8-38.4-51.2-57.6-70.4-25.6 19.2-51.2 38.4-96 38.4-76.8 0-134.4-64-134.4-140.8s57.6-140.8 134.4-140.8c70.4 0 102.4 32 121.6 96-32 0-121.6 0-121.6 0v89.6c0 0 179.2 0 224 0 19.2-115.2-32-288-224-288zM832 384v-64h-64v64h-64v64h64v64h64v-64h64v-64h-64z"/>
<glyph unicode="" glyph-name="social_tumblr_circle" data-tags="social_tumblr_circle" d="M512 960c-282.752 0-512-229.248-512-512s229.248-512 512-512 512 229.248 512 512c0 282.816-229.248 512-512 512zM703.936 486.4h-153.536l-0.064-140.48c0-35.648-0.448-56.192 3.328-66.304 3.776-10.048 13.12-20.48 23.36-26.496 13.632-8.192 29.12-12.224 46.592-12.224 31.104 0 49.472 4.096 80.256 24.32v-92.416c-26.24-12.352-49.088-19.52-70.4-24.512-21.248-4.992-44.224-7.488-68.992-7.488-28.096 0-44.672 3.52-66.24 10.624s-40 17.28-55.232 30.336c-15.296 13.12-25.792 27.136-31.744 41.92-5.888 14.784-8.832 36.224-8.832 64.32v215.424h-82.368v87.040c24.128 7.808 51.136 19.072 68.288 33.728 17.216 14.656 31.040 32.192 41.472 52.736 10.368 20.416 17.536 46.592 21.504 78.272h99.072v-153.6h153.536v-115.2z"/>
<glyph unicode="" glyph-name="social_stumbleupon_circle" data-tags="social_stumbleupon_circle" d="M512 960c-282.752 0-512-229.248-512-512s229.248-512 512-512 512 229.248 512 512c0 282.816-229.248 512-512 512zM512 585.216c-25.216 0-45.76-20.544-45.76-45.76v-182.976c0-75.648-61.568-137.216-137.216-137.216s-137.216 61.568-137.216 137.216v91.52h91.456v-91.456c0-25.216 20.544-45.76 45.76-45.76s45.76 20.544 45.76 45.76v182.912c0 75.648 61.568 137.216 137.216 137.216s137.216-61.568 137.216-127.232v-44.352l-58.624-17.088-32.896 17.152v44.352c0 15.168-20.544 35.712-45.696 35.712zM832.128 356.544c0-75.648-61.568-137.216-137.216-137.216s-137.216 61.568-137.216 147.264v88.576l32.896-17.152 58.624 17.152v-88.64c0-35.2 20.544-55.744 45.76-55.744s45.76 20.544 45.76 45.76v91.456h91.456v-91.456z"/>
<glyph unicode="" glyph-name="social_wordpress_circle" data-tags="social_wordpress_circle" d="M512 960c-282.752 0-512-229.248-512-512s229.248-512 512-512 512 229.248 512 512-229.248 512-512 512zM73.152 448c0 61.952 13.696 120.832 38.016 173.952l209.344-558.592c-146.432 69.248-247.36 215.488-247.36 384.64zM512 20.544c-43.072 0-84.608 6.144-123.968 17.408l131.648 372.672 134.848-359.936c0.896-2.112 1.984-4.096 3.136-5.952-45.504-15.616-94.528-24.192-145.664-24.192zM572.352 648.384c26.432 1.344 50.24 4.032 50.24 4.032 23.68 2.752 20.864 36.544-2.752 35.264 0 0-71.104-5.44-116.928-5.44-43.072 0-115.584 5.44-115.584 5.44-23.68 1.344-26.432-33.856-2.816-35.264 0 0 22.4-2.688 46.016-4.032l68.352-182.464-96.064-280.512-159.744 462.976c26.496 1.344 50.24 4.032 50.24 4.032 23.616 2.752 20.864 36.544-2.752 35.264 0 0-71.104-5.44-116.928-5.44-8.192 0-17.92 0.192-28.224 0.512 78.4 116.032 213.312 192.704 366.592 192.704 114.24 0 218.24-42.56 296.384-112.192-1.92 0.128-3.712 0.384-5.696 0.384-43.136 0-73.728-36.544-73.728-75.84 0-35.264 20.864-65.024 43.072-100.288 16.768-28.544 36.224-65.088 36.224-117.888 0-36.544-14.4-79.040-33.344-138.24l-43.84-142.4-158.72 459.392zM950.848 448c0-157.696-87.744-295.36-218.24-369.344l134.080 377.408c25.024 60.992 33.344 109.696 33.344 153.088 0 15.744-1.024 30.336-2.944 43.968 34.24-60.928 53.76-130.816 53.76-205.12z"/>
<glyph unicode="" glyph-name="social_instagram_circle" data-tags="social_instagram_circle" d="M606.016 448c0-51.924-42.092-94.016-94.016-94.016s-94.016 42.092-94.016 94.016c0 51.924 42.092 94.016 94.016 94.016s94.016-42.092 94.016-94.016zM512 960c-282.752 0-512-229.248-512-512s229.248-512 512-512 512 229.248 512 512c0 282.816-229.248 512-512 512zM830.080 316.096c-1.536-34.048-6.976-57.344-14.848-77.696-8.192-21.056-19.136-38.912-36.928-56.704s-35.648-28.736-56.704-36.928c-20.352-7.936-43.648-13.312-77.696-14.848-34.112-1.536-44.992-1.92-131.904-1.92s-97.792 0.384-131.904 1.92c-34.048 1.536-57.344 6.976-77.696 14.848-21.056 8.192-38.912 19.136-56.704 36.928s-28.736 35.648-36.928 56.704c-7.936 20.352-13.312 43.648-14.848 77.696-1.536 34.112-1.92 44.992-1.92 131.904s0.384 97.792 1.92 131.968c1.536 34.048 6.976 57.344 14.848 77.696 8.192 20.992 19.136 38.848 36.928 56.64s35.648 28.736 56.704 36.928c20.352 7.872 43.584 13.312 77.696 14.848s44.992 1.92 131.904 1.92 97.792-0.384 131.904-1.92c34.048-1.536 57.344-6.976 77.696-14.848 21.056-8.192 38.912-19.136 56.704-36.928s28.736-35.648 36.928-56.704c7.936-20.352 13.312-43.648 14.848-77.696 1.536-34.112 1.92-44.992 1.92-131.904s-0.384-97.792-1.92-131.904zM755.456 632.192c-5.696 14.592-12.416 24.96-23.36 35.904s-21.312 17.664-35.904 23.36c-11.008 4.288-27.52 9.344-57.984 10.752-32.96 1.472-42.816 1.792-126.208 1.792s-93.248-0.32-126.208-1.792c-30.4-1.408-46.976-6.528-57.984-10.752-14.592-5.696-24.96-12.416-35.904-23.36-10.88-10.944-17.664-21.376-23.36-35.904-4.224-11.008-9.344-27.584-10.752-57.984-1.472-32.96-1.792-42.816-1.792-126.208s0.32-93.248 1.792-126.208c1.408-30.464 6.464-46.976 10.752-57.984 5.696-14.592 12.416-24.96 23.36-35.904s21.312-17.664 35.904-23.36c11.008-4.288 27.52-9.344 57.984-10.752 32.96-1.472 42.816-1.792 126.208-1.792s93.248 0.32 126.208 1.792c30.464 1.408 46.976 6.464 57.984 10.752 14.592 5.696 24.96 12.416 35.904 23.36s17.664 21.312 23.36 35.904c4.288 11.008 9.344 27.52 10.752 57.984 1.472 32.96 1.792 42.816 1.792 126.208s-0.32 93.248-1.792 126.208c-1.408 30.4-6.528 46.976-10.752 57.984zM512 287.616c-88.576 0-160.32 71.808-160.32 160.32s71.744 160.384 160.32 160.384 160.32-71.744 160.32-160.32-71.744-160.384-160.32-160.384zM678.656 577.216c-20.672 0-37.44 16.768-37.44 37.44s16.768 37.504 37.44 37.504c20.672 0 37.504-16.768 37.504-37.504 0-20.672-16.768-37.44-37.504-37.44z"/>
<glyph unicode="" glyph-name="social_dribbble_circle" data-tags="social_dribbble_circle" d="M631.296 409.536c42.816-117.632 60.224-213.44 63.552-233.344 73.408 49.664 125.696 128.32 140.288 219.392-11.136 3.52-101.248 30.4-203.84 13.952zM567.872 393.664c-184.576-64.32-250.88-192.384-256.768-204.416 55.488-43.264 125.248-69.056 200.896-69.056 45.376-0.064 88.64 9.216 127.872 25.984-4.864 28.736-23.872 128.832-69.824 248.192-0.768-0.192-1.472-0.448-2.176-0.704zM582.528 525.44c7.616-15.616 14.912-31.488 21.696-47.424 2.368-5.632 4.736-11.328 7.040-16.896 108.928 13.696 217.152-8.256 227.904-10.56-0.64 77.248-28.288 148.224-73.856 203.904-6.848-9.28-61.696-79.616-182.784-129.024zM534.848 444.672c4.288 1.344 8.576 2.688 12.864 3.84-8.192 18.624-17.152 37.248-26.496 55.552-163.456-48.896-322.112-46.848-336.448-46.528-0.064-3.328-0.128-6.656-0.128-9.984 0.064-84.096 31.872-160.832 84.16-218.88 7.424 12.672 97.216 161.408 266.048 216zM494.208 554.432c-54.272 96.448-112.704 177.472-121.344 189.312-91.584-43.2-160.064-127.616-181.248-229.184 14.656-0.192 149.504-0.768 302.592 39.872zM728.96 692.352c-57.792 51.264-133.76 82.496-216.96 82.496-26.368 0-52.096-3.136-76.672-9.088 9.024-12.16 68.48-93.12 122.112-191.616 116.416 43.584 165.632 109.824 171.52 118.208zM512 960c-282.752 0-512-229.248-512-512s229.248-512 512-512 512 229.248 512 512c0 282.816-229.248 512-512 512zM512 64.832c-211.264 0-383.168 171.904-383.168 383.168s171.904 383.168 383.168 383.168 383.168-171.904 383.168-383.168c0-211.264-171.904-383.168-383.168-383.168z"/>
<glyph unicode="" glyph-name="social_vimeo_circle" data-tags="social_vimeo_circle" d="M512 960c-282.752 0-512-229.248-512-512s229.248-512 512-512 512 229.248 512 512c0 282.816-229.248 512-512 512zM816.128 587.328c-34.368-193.408-226.176-357.184-283.84-394.56-57.728-37.376-110.336 14.976-129.472 54.592-21.824 45.184-87.296 290.112-104.448 310.4s-68.608-20.288-68.608-20.288l-24.96 32.704c0 0 104.512 124.736 184 140.416 84.288 16.576 84.16-129.472 104.448-210.496 19.648-78.4 32.768-123.264 49.92-123.264s49.92 43.712 85.76 110.72c35.968 67.072-1.536 126.336-71.744 84.224 28.16 168.384 293.248 208.896 258.944 15.552z"/>
<glyph unicode="" glyph-name="social_linkedin_circle" data-tags="social_linkedin_circle" d="M512 960c-282.752 0-512-229.248-512-512s229.248-512 512-512 512 229.248 512 512c0 282.816-229.248 512-512 512zM384 200h-128v448h128v-448zM323.968 675.456c-33.152 0-59.968 26.88-59.968 60.032s26.88 60.032 59.968 60.032c33.152-0.064 60.032-26.944 60.032-60.032 0-33.152-26.88-60.032-60.032-60.032zM832 200h-128v276.992c0 32.448-9.28 55.168-49.152 55.168-66.112 0-78.848-55.168-78.848-55.168v-276.992h-128v448h128v-42.816c18.304 14.016 64 42.752 128 42.752 41.536 0 128-24.832 128-174.848v-273.088z"/>
<glyph unicode="" glyph-name="social_rss_circle" data-tags="social_rss_circle" d="M512 960c-282.752 0-512-229.248-512-512s229.248-512 512-512 512 229.248 512 512c0 282.816-229.248 512-512 512zM276.16 129.536c-46.016 0-83.392 37.12-83.392 83.072 0 45.696 37.376 83.264 83.392 83.264 46.144 0 83.456-37.568 83.52-83.264 0-45.952-37.312-83.072-83.52-83.072zM485.696 128.768c0 78.528-30.528 152.32-85.824 207.552-55.296 55.424-128.832 86.016-206.976 86.016v120.064c227.904 0 413.44-185.536 413.44-413.632h-120.64zM698.752 128.832c0 279.168-226.88 506.304-505.728 506.304v120.064c345.216 0 626.176-281.088 626.176-626.368h-120.448z"/>
<glyph unicode="" glyph-name="social_deviantart_circle" data-tags="social_deviantart_circle" d="M512 960c-282.752 0-512-229.248-512-512s229.248-512 512-512 512 229.248 512 512c0 282.816-229.248 512-512 512zM547.328 366.72l-80.96 145.984c35.072 6.016 65.408 7.552 91.712 6.016l45.952-73.408 110.080 26.688c-43.264 42.368-122.304 82.176-266.816 56.448-3.2-0.576-6.336-1.216-9.408-1.792l89.344-165.44-321.728-88.384c-6.976 10.816-12.608 22.336-16.768 34.432-20.8 60.224-3.712 122.048 39.552 171.136 26.176 29.376 62.528 53.824 106.752 70.912l-27.072 56.704c24.064 7.68 50.112 13.44 77.76 17.152l28.416-52.672c3.072 0.512 6.144 1.024 9.28 1.472 85.568 12.928 169.152 13.696 246.272-4.416 78.656-15.488 150.848-49.856 184.128-88.448 6.72-7.744 11.776-15.808 15.232-24.064l-321.728-88.32zM297.472 371.072l110.080 26.688-49.216 102.912c-62.848-33.664-70.784-84.288-60.864-129.6z"/>
<glyph unicode="" glyph-name="social_share_circle" data-tags="social_share_circle" d="M512 960c-282.752 0-512-229.248-512-512s229.248-512 512-512 512 229.248 512 512c0 282.816-229.248 512-512 512zM618.304 331.968c15.808 11.968 35.52 19.136 56.896 19.136 52.224 0 94.592-42.304 94.592-94.592 0-52.224-42.368-94.592-94.592-94.592s-94.528 42.304-94.528 94.592c0 0 0 0.064 0 0.064l-241.216 116.608c-14.784-9.536-32.32-15.168-51.2-15.168-52.224 0-94.592 42.368-94.592 94.592s42.368 94.592 94.592 94.592c22.272 0 42.688-7.744 58.88-20.608l233.472 112.768c0 0 0 0.064 0 0.064 0 52.224 42.368 94.592 94.528 94.592 52.224 0 94.592-42.304 94.592-94.592s-42.368-94.592-94.592-94.592c-21.376 0-41.024 7.168-56.896 19.136l-235.52-113.792c0-1.408-0.128-2.88-0.192-4.288l235.776-113.92z"/>
<glyph unicode="" glyph-name="social_myspace_circle" data-tags="social_myspace_circle" d="M512 960c-282.752 0-512-229.248-512-512s229.248-512 512-512 512 229.248 512 512c0 282.816-229.248 512-512 512zM530.176 704.512c5.504 12.48 12.928 23.488 22.336 32.896 9.472 9.472 20.352 16.896 32.896 22.4 12.48 5.504 26.112 8.192 40.64 8.192 14.656 0 28.16-2.688 40.64-8.192 12.48-5.44 23.424-12.928 32.832-22.4 9.472-9.408 16.96-20.416 22.4-32.896 5.504-12.48 8.256-25.984 8.256-40.64s-2.752-28.16-8.256-40.64c-5.44-12.48-12.928-23.424-22.4-32.896-9.472-9.408-20.352-16.896-32.832-22.4-12.48-5.44-25.984-8.192-40.64-8.192-14.592 0-28.16 2.752-40.64 8.192-12.48 5.504-23.424 12.928-32.896 22.4-9.408 9.472-16.832 20.416-22.336 32.896s-8.256 26.048-8.256 40.64c0 14.656 2.752 28.16 8.256 40.64zM368.064 721.024c15.552 15.488 34.24 23.232 56.128 23.232 22.528 0 41.6-7.744 57.088-23.232 15.552-15.552 23.296-34.304 23.296-56.256 0-22.528-7.808-41.536-23.36-57.088-15.424-15.488-34.496-23.232-57.024-23.232-21.824 0-40.576 7.744-56.128 23.296s-23.36 34.56-23.36 57.088c0.064 21.888 7.808 40.64 23.36 56.192zM228.352 706.368c11.84 11.904 26.304 17.856 43.328 17.856 17.088 0 31.36-5.952 42.944-17.856 11.52-11.84 17.28-25.984 17.28-42.432 0-17.088-5.824-31.488-17.28-43.392-11.584-11.904-25.856-17.856-42.944-17.856-17.024 0-31.488 5.952-43.328 17.792-11.904 11.904-17.856 26.368-17.856 43.392 0 16.448 5.952 30.656 17.856 42.496zM768 128h-281.28v128h-176.192v128h-105.152v116.416c0 20.672-0.512 38.208 13.824 52.48 14.272 14.272 31.808 21.44 52.48 21.44 17.664 0 32.96-5.312 45.696-16 12.8-10.688 21.248-23.872 25.6-39.744 10.304 12.16 22.528 21.568 36.48 28.352 14.016 6.656 28.928 10.048 44.736 10.048 24.96 0 46.72-7.488 65.344-22.4 18.56-14.912 30.912-33.664 36.992-56.128 12.8 12.16 27.648 21.952 44.8 29.184 17.024 7.296 35.328 10.944 54.784 10.944 19.52 0 37.952-3.648 55.296-10.944 17.28-7.296 32.384-17.344 45.184-30.144s22.976-27.84 30.528-45.184c7.616-17.28 10.88-35.712 10.88-55.232v-249.088z"/>
<glyph unicode="" glyph-name="social_skype_circle" data-tags="social_skype_circle" d="M512 960c-282.752 0-512-229.248-512-512s229.248-512 512-512 512 229.248 512 512c0 282.816-229.248 512-512 512zM650.816 145.216c-32.64 0-63.104 9.344-88.96 25.408-16.64-3.008-33.728-4.736-51.328-4.736-155.84 0-282.112 125.632-282.112 280.64 0 15.040 1.216 29.824 3.52 44.224-17.216 26.368-27.136 57.856-27.136 91.648 0 92.992 75.328 168.32 168.32 168.384 33.92 0 65.408-10.048 91.904-27.328 14.72 2.432 29.952 3.712 45.44 3.712 155.776 0 282.112-125.696 282.112-280.64 0-12.928-0.96-25.6-2.624-38.080 18.496-27.072 29.248-59.712 29.248-94.848 0-92.992-75.328-168.384-168.384-168.384zM475.136 500.544c-81.536 19.84-36.928 89.6 29.12 88.576 64.128-1.024 96.704-68.736 125.76-65.216 29.12 3.52 53.888 47.104 8.128 86.144-39.552 33.792-89.6 52.416-166.528 45.44-60.288-5.44-117.568-44.288-124.608-119.936-6.976-75.712 82.752-114.176 153.792-124.736 49.792-7.296 117.632-31.424 76.864-78.016-37.44-42.816-108.352-16.32-126.976-4.672-18.624 11.712-39.616 53.632-74.56 51.328-35.008-2.368-52.224-48.256-9.28-88.576 38.464-36.032 80.384-55.936 170.048-51.2 89.728 4.672 170.112 83.84 138.624 158.4s-118.848 82.688-200.384 102.464z"/>
<glyph unicode="" glyph-name="social_youtube_circle" data-tags="social_youtube_circle" d="M512 960c-282.752 0-512-229.248-512-512s229.248-512 512-512 512 229.248 512 512c0 282.816-229.248 512-512 512zM826.56 333.376c-3.456-42.624-35.776-97.024-81.088-104.896-144.832-11.2-316.736-9.856-466.88 0-46.848 5.888-77.632 62.336-81.088 104.896-7.296 89.472-7.296 140.416 0 229.888 3.456 42.56 35.008 98.688 81.088 103.808 148.416 12.48 321.152 9.792 466.88 0 52.224-1.92 77.632-55.616 81.088-98.24 7.232-89.472 7.232-145.984 0-235.456zM448 320l192 128-192 128z"/>
<glyph unicode="" glyph-name="social_picassa_circle" data-tags="social_picassa_circle" d="M512 960c-282.752 0-512-229.248-512-512s229.248-512 512-512 512 229.248 512 512c0 282.816-229.248 512-512 512zM512 832c50.944 0 99.52-9.92 144-27.904v-267.776l-273.344 273.344c40.384 14.4 83.968 22.336 129.344 22.336zM139.2 355.584c-7.296 29.568-11.2 60.544-11.2 92.416 0 145.088 80.384 271.296 199.104 336.64l120.576-120.64-308.48-308.416zM320 115.392c-70.976 41.024-127.552 104.128-160.384 179.904l160.384 160.384v-340.288zM512 64c-50.944 0-99.52 9.92-144 27.968v164.032h476.608c-66.432-114.752-190.464-192-332.608-192zM868.032 304h-164.032v476.608c114.752-66.432 192-190.464 192-332.608 0-50.944-9.92-99.52-27.968-144z"/>
<glyph unicode="" glyph-name="social_googledrive_alt2" data-tags="social_googledrive_alt2" d="M512 960c-282.752 0-512-229.248-512-512s229.248-512 512-512 512 229.248 512 512c0 282.816-229.248 512-512 512zM610.752 704.576l169.472-293.632h-197.44l-169.536 293.632h197.504zM215.808 362.496l169.408 293.504 98.688-171.072-169.408-293.504-98.688 171.072zM709.44 191.424h-326.592l98.688 171.072h326.656l-98.752-171.072z"/>
<glyph unicode="" glyph-name="social_flickr_circle" data-tags="social_flickr_circle" d="M512 960c-282.752 0-512-229.248-512-512s229.248-512 512-512 512 229.248 512 512c0 282.816-229.248 512-512 512zM323.584 319.744c-71.744 0-129.856 58.112-129.856 129.856s58.112 129.856 129.856 129.856c71.744 0 129.856-58.112 129.856-129.856s-58.112-129.856-129.856-129.856zM701.76 319.744c-71.744 0-129.856 58.112-129.856 129.856s58.112 129.856 129.856 129.856c71.744 0 129.856-58.112 129.856-129.856s-58.112-129.856-129.856-129.856z"/>
<glyph unicode="" glyph-name="social_blogger_circle" data-tags="social_blogger_circle" d="M631.68 368.192h-239.36c-21.952 0-39.872-17.984-39.872-39.872s17.984-39.872 39.872-39.872h239.36c21.952 0 39.872 17.984 39.872 39.872s-17.92 39.872-39.872 39.872zM392.32 527.808h119.68c21.952 0 39.872 17.984 39.872 39.872 0 21.952-17.984 39.872-39.872 39.872h-119.68c-21.952 0-39.872-17.984-39.872-39.872-0.064-21.952 17.92-39.872 39.872-39.872zM512 960c-282.752 0-512-229.248-512-512s229.248-512 512-512 512 229.248 512 512c0 282.816-229.248 512-512 512zM831.168 334.912c0-113.856-92.672-206.080-207.36-206.080h-223.424c-114.56 0-207.616 92.224-207.616 206.016v226.176c0.064 113.856 92.992 206.144 207.616 206.144h104.64c114.688 0 206.464-85.632 206.464-199.488 1.536-21.312 20.736-39.872 42.624-39.872h35.776c22.912 0 41.28-24.064 41.28-46.784v-146.112z"/>
</font>
</defs>
</svg>
